  0
SECTION
  2
HEADER
  9
$ACADVER
  1
AC1009
  9
$DWGCODEPAGE
  3
ansi_1252
  9
$INSBASE
 10
0.0
 20
0.0
 30
0.0
  9
$EXTMIN
 10
-0.08400000000006
 20
226.1379514716711
 30
0.0
  9
$EXTMAX
 10
1840.084504237888
 20
1550.753412919483
 30
0.0
  9
$LIMMIN
 10
0.0
 20
0.0
  9
$LIMMAX
 10
420.0
 20
297.0
  9
$ORTHOMODE
 70
     0
  9
$REGENMODE
 70
     1
  9
$FILLMODE
 70
     1
  9
$QTEXTMODE
 70
     0
  9
$MIRRTEXT
 70
     0
  9
$DRAGMODE
 70
     2
  9
$LTSCALE
 40
1.0
  9
$OSMODE
 70
   183
  9
$ATTMODE
 70
     1
  9
$TEXTSIZE
 40
2.5
  9
$TRACEWID
 40
1.0
  9
$TEXTSTYLE
  7
STANDARD
  9
$CLAYER
  8
LUO-LIGHT
  9
$CELTYPE
  6
BYLAYER
  9
$CECOLOR
 62
   256
  9
$DIMSCALE
 40
1.0
  9
$DIMASZ
 40
2.5
  9
$DIMEXO
 40
0.625
  9
$DIMDLI
 40
5.0
  9
$DIMRND
 40
0.0
  9
$DIMDLE
 40
0.0
  9
$DIMEXE
 40
1.25
  9
$DIMTP
 40
0.0
  9
$DIMTM
 40
0.0
  9
$DIMTXT
 40
2.5
  9
$DIMCEN
 40
2.5
  9
$DIMTSZ
 40
0.0
  9
$DIMTOL
 70
     0
  9
$DIMLIM
 70
     0
  9
$DIMTIH
 70
     0
  9
$DIMTOH
 70
     0
  9
$DIMSE1
 70
     0
  9
$DIMSE2
 70
     0
  9
$DIMTAD
 70
     1
  9
$DIMZIN
 70
     8
  9
$DIMBLK
  1

  9
$DIMASO
 70
     1
  9
$DIMSHO
 70
     1
  9
$DIMPOST
  1

  9
$DIMAPOST
  1

  9
$DIMALT
 70
     0
  9
$DIMALTD
 70
     3
  9
$DIMALTF
 40
0.03937007874016
  9
$DIMLFAC
 40
1.0
  9
$DIMTOFL
 70
     1
  9
$DIMTVP
 40
0.0
  9
$DIMTIX
 70
     0
  9
$DIMSOXD
 70
     0
  9
$DIMSAH
 70
     0
  9
$DIMBLK1
  1

  9
$DIMBLK2
  1

  9
$DIMSTYLE
  2
ISO-25
  9
$DIMCLRD
 70
     0
  9
$DIMCLRE
 70
     0
  9
$DIMCLRT
 70
     0
  9
$DIMTFAC
 40
1.0
  9
$DIMGAP
 40
0.625
  9
$LUNITS
 70
     2
  9
$LUPREC
 70
     4
  9
$SKETCHINC
 40
1.0
  9
$FILLETRAD
 40
12.4
  9
$AUNITS
 70
     0
  9
$AUPREC
 70
     0
  9
$MENU
  1
.
  9
$ELEVATION
 40
0.0
  9
$PELEVATION
 40
0.0
  9
$THICKNESS
 40
0.0
  9
$LIMCHECK
 70
     0
  9
$CHAMFERA
 40
0.0
  9
$CHAMFERB
 40
0.0
  9
$SKPOLY
 70
     0
  9
$TDCREATE
 40
2458383.616401458
  9
$TDUPDATE
 40
2459359.949839768
  9
$TDINDWG
 40
2458444.916922292
  9
$TDUSRTIMER
 40
2458999.756709155
  9
$USRTIMER
 70
     1
  9
$ANGBASE
 50
0.0
  9
$ANGDIR
 70
     0
  9
$PDMODE
 70
     0
  9
$PDSIZE
 40
0.0
  9
$PLINEWID
 40
0.0
  9
$COORDS
 70
     2
  9
$SPLFRAME
 70
     0
  9
$SPLINETYPE
 70
     6
  9
$SPLINESEGS
 70
     8
  9
$ATTDIA
 70
     0
  9
$ATTREQ
 70
     1
  9
$HANDLING
 70
     1
  9
$HANDSEED
  5
1426
  9
$SURFTAB1
 70
     6
  9
$SURFTAB2
 70
     6
  9
$SURFTYPE
 70
     6
  9
$SURFU
 70
     6
  9
$SURFV
 70
     6
  9
$UCSNAME
  2

  9
$UCSORG
 10
0.0
 20
0.0
 30
0.0
  9
$UCSXDIR
 10
1.0
 20
0.0
 30
0.0
  9
$UCSYDIR
 10
0.0
 20
1.0
 30
0.0
  9
$PUCSNAME
  2

  9
$PUCSORG
 10
0.0
 20
0.0
 30
0.0
  9
$PUCSXDIR
 10
1.0
 20
0.0
 30
0.0
  9
$PUCSYDIR
 10
0.0
 20
1.0
 30
0.0
  9
$USERI1
 70
     0
  9
$USERI2
 70
     0
  9
$USERI3
 70
     0
  9
$USERI4
 70
     0
  9
$USERI5
 70
     0
  9
$USERR1
 40
0.0
  9
$USERR2
 40
0.0
  9
$USERR3
 40
0.0
  9
$USERR4
 40
0.0
  9
$USERR5
 40
0.0
  9
$WORLDVIEW
 70
     1
  9
$SHADEDGE
 70
     3
  9
$SHADEDIF
 70
    70
  9
$TILEMODE
 70
     1
  9
$MAXACTVP
 70
    64
  9
$PLIMCHECK
 70
     0
  9
$PEXTMIN
 10
0.0
 20
0.0
 30
0.0
  9
$PEXTMAX
 10
0.0
 20
0.0
 30
0.0
  9
$PLIMMIN
 10
0.0
 20
0.0
  9
$PLIMMAX
 10
12.0
 20
9.0
  9
$UNITMODE
 70
     0
  9
$VISRETAIN
 70
     1
  9
$PLINEGEN
 70
     0
  9
$PSLTSCALE
 70
     0
  0
ENDSEC
  0
SECTION
  2
TABLES
  0
TABLE
  2
VPORT
 70
     1
  0
VPORT
  2
*ACTIVE
 70
     0
 10
0.0
 20
0.0
 11
1.0
 21
1.0
 12
1081.30844355097
 22
653.8134746313387
 13
0.0
 23
0.0
 14
10.0
 24
10.0
 15
10.0
 25
10.0
 16
0.0
 26
0.0
 36
1.000000000000142
 17
0.0
 27
0.0
 37
63.72872484821771
 40
2302.217818753358
 41
2.16
 42
50.0
 43
0.0
 44
0.0
 50
0.0
 51
0.0
 71
    16
 72
  1000
 73
     1
 74
     3
 75
     0
 76
     1
 77
     0
 78
     0
  0
ENDTAB
  0
TABLE
  2
LTYPE
 70
     3
  0
LTYPE
  2
CONTINUOUS
 70
     0
  3
Solid line
 72
    65
 73
     0
 40
0.0
  0
LTYPE
  2
DASHED2
 70
     0
  3
_ _ _ _ _ _ _ _ _ _ _ _ _ _ _ _ _ _ _ _ _ _ _ _
 72
    65
 73
     2
 40
0.375
 49
0.25
 49
-0.125
  0
LTYPE
  2
DOT
 70
     0
  3
Dot . . . . . . . . . . . . . . . . . . . . . .
 72
    65
 73
     2
 40
6.35
 49
0.0
 49
-6.35
  0
ENDTAB
  0
TABLE
  2
LAYER
 70
     4
  0
LAYER
  2
0
 70
     0
 62
     7
  6
CONTINUOUS
  0
LAYER
  2
DEFPOINTS
 70
     0
 62
     7
  6
CONTINUOUS
  0
LAYER
  2
LUO-LIGHT
 70
     0
 62
     4
  6
CONTINUOUS
  0
LAYER
  2
DIMENSIONS
 70
     0
 62
     7
  6
CONTINUOUS
  0
ENDTAB
  0
TABLE
  2
STYLE
 70
     1
  0
STYLE
  2
STANDARD
 70
     0
 40
0.0
 41
1.0
 50
0.0
 71
     0
 42
2.5
  3
arial.ttf
  4

  0
ENDTAB
  0
TABLE
  2
VIEW
 70
     0
  0
ENDTAB
  0
TABLE
  2
UCS
 70
     0
  0
ENDTAB
  0
TABLE
  2
APPID
 70
    15
  0
APPID
  2
ACAD
 70
     0
  0
APPID
  2
PROGE_PRINT_SETTINGS
 70
     0
  0
APPID
  2
ACAD_PSEXT
 70
     0
  0
APPID
  2
ACAD_NAV_VCDISPLAY
 70
     0
  0
APPID
  2
ACAD_MLEADERVER
 70
     0
  0
APPID
  2
ACAD_DSTYLE_DIMRADIAL_EXTE
 70
     0
  0
APPID
  2
ACAECLAYERSTANDARD
 70
     0
  0
APPID
  2
ACCMTRANSPARENCY
 70
     0
  0
APPID
  2
MCS_DIM1
 70
     0
  0
APPID
  2
MCSXDATA5
 70
     0
  0
APPID
  2
MCS_DOCUMENT_ID
 70
     0
  0
APPID
  2
MCS_PARAMS_DATA
 70
     0
  0
APPID
  2
MC_VERSION_DATA
 70
     0
  0
APPID
  2
PE_URL
 70
     0
  0
APPID
  2
ACADANNOTATIVE
 70
     0
  0
ENDTAB
  0
TABLE
  2
DIMSTYLE
 70
     2
  0
DIMSTYLE
  2
STANDARD
 70
     0
  3

  4

  5

  6

  7

 40
1.0
 41
0.18
 42
0.0625
 43
0.38
 44
0.18
 45
0.0
 46
0.0
 47
0.0
 48
0.0
140
0.18
141
0.09
142
0.0
143
25.4
144
1.0
145
0.0
146
1.0
147
0.09
 71
     0
 72
     0
 73
     1
 74
     1
 75
     0
 76
     0
 77
     0
 78
     0
170
     0
171
     2
172
     0
173
     0
174
     0
175
     0
176
     0
177
     0
178
     0
  0
DIMSTYLE
  2
ISO-25
 70
     0
  3

  4

  5

  6

  7

 40
1.0
 41
2.5
 42
0.625
 43
5.0
 44
1.25
 45
0.0
 46
0.0
 47
0.0
 48
0.0
140
2.5
141
2.5
142
0.0
143
0.03937007874016
144
1.0
145
0.0
146
1.0
147
0.625
 71
     0
 72
     0
 73
     0
 74
     0
 75
     0
 76
     0
 77
     1
 78
     8
170
     0
171
     3
172
     1
173
     0
174
     0
175
     0
176
     0
177
     0
178
     0
  0
ENDTAB
  0
ENDSEC
  0
SECTION
  2
BLOCKS
  0
BLOCK
  8
0
  2
$MODEL_SPACE
 70
     0
 10
0.0
 20
0.0
 30
0.0
  3
$MODEL_SPACE
  1

  0
ENDBLK
  5
21
  8
0
  0
BLOCK
 67
     1
  8
0
  2
$PAPER_SPACE
 70
     0
 10
0.0
 20
0.0
 30
0.0
  3
$PAPER_SPACE
  1

  0
ENDBLK
  5
163
 67
     1
  8
0
  0
BLOCK
  8
0
  2
*D1
 70
     1
 10
0.0
 20
0.0
 30
0.0
  3
*D1
  1

  0
LINE
  5
1DA
  8
0
 62
     0
 10
401.2892293949897
 20
1427.72960403923
 30
0.0
 11
401.2892293949897
 21
1467.318542347957
 31
0.0
  0
LINE
  5
1DB
  8
0
 62
     0
 10
1187.955896061663
 20
1427.729604039233
 30
0.0
 11
1187.955896061663
 21
1467.318542347957
 31
0.0
  0
LINE
  5
1DC
  8
0
 62
     0
 10
429.2892293949897
 20
1466.068542347957
 30
0.0
 11
1159.955896061663
 21
1466.068542347957
 31
0.0
  0
SOLID
  5
1DD
  8
0
 62
     0
 10
429.2892293949897
 20
1470.735209014623
 30
0.0
 11
429.2892293949897
 21
1461.40187568129
 31
0.0
 12
401.2892293949897
 22
1466.068542347957
 32
0.0
 13
401.2892293949897
 23
1466.068542347957
 33
0.0
  0
SOLID
  5
1DE
  8
0
 62
     0
 10
1159.955896061663
 20
1461.40187568129
 30
0.0
 11
1159.955896061663
 21
1470.735209014623
 31
0.0
 12
1187.955896061663
 22
1466.068542347957
 32
0.0
 13
1187.955896061663
 23
1466.068542347957
 33
0.0
  0
TEXT
  5
1DF
  8
0
  6
CONTINUOUS
 62
     0
 10
762.0025627283263
 20
1477.544542347957
 30
0.0
 40
28.0
  1
787
  0
POINT
  5
1E1
  8
DEFPOINTS
 62
     0
 10
401.2892293949897
 20
1407.72960403923
 30
0.0
  0
POINT
  5
1E2
  8
DEFPOINTS
 62
     0
 10
1187.955896061663
 20
1407.729604039233
 30
0.0
  0
POINT
  5
1E3
  8
DEFPOINTS
 62
     0
 10
1187.955896061663
 20
1466.068542347957
 30
0.0
  0
ENDBLK
  5
1E4
  8
0
  0
BLOCK
  8
0
  2
*D2
 70
     1
 10
0.0
 20
0.0
 30
0.0
  3
*D2
  1

  0
LINE
  5
1E8
  8
0
 62
     0
 10
1187.955896061668
 20
1492.158721430131
 30
0.0
 11
1187.955896061668
 21
1512.415412919484
 31
0.0
  0
LINE
  5
1E9
  8
0
 62
     0
 10
7.95589606165481
 20
1492.783721430131
 30
0.0
 11
7.95589606165481
 21
1512.415412919484
 31
0.0
  0
LINE
  5
1EA
  8
0
 62
     0
 10
1159.955896061668
 20
1511.165412919484
 30
0.0
 11
35.95589606165481
 21
1511.165412919484
 31
0.0
  0
SOLID
  5
1EB
  8
0
 62
     0
 10
1159.955896061668
 20
1506.498746252817
 30
0.0
 11
1159.955896061668
 21
1515.83207958615
 31
0.0
 12
1187.955896061668
 22
1511.165412919484
 32
0.0
 13
1187.955896061668
 23
1511.165412919484
 33
0.0
  0
SOLID
  5
1EC
  8
0
 62
     0
 10
35.95589606165481
 20
1515.83207958615
 30
0.0
 11
35.95589606165481
 21
1506.498746252817
 31
0.0
 12
7.95589606165481
 22
1511.165412919484
 32
0.0
 13
7.95589606165481
 23
1511.165412919484
 33
0.0
  0
TEXT
  5
1ED
  8
0
  6
CONTINUOUS
 62
     0
 10
553.3098960616614
 20
1522.641412919484
 30
0.0
 40
28.0
  1
1180
  0
POINT
  5
1EE
  8
DEFPOINTS
 62
     0
 10
1187.955896061668
 20
1472.158721430131
 30
0.0
  0
POINT
  5
1EF
  8
DEFPOINTS
 62
     0
 10
7.95589606165481
 20
1472.783721430131
 30
0.0
  0
POINT
  5
1F0
  8
DEFPOINTS
 62
     0
 10
7.95589606165481
 20
1511.165412919484
 30
0.0
  0
ENDBLK
  5
1F1
  8
0
  0
BLOCK
  8
0
  2
*D3
 70
     1
 10
0.0
 20
0.0
 30
0.0
  3
*D3
  1

  0
LINE
  5
1F7
  8
0
 62
     0
 10
7.9558960616539
 20
1427.729604039228
 30
0.0
 11
7.9558960616539
 21
1467.318542347954
 31
0.0
  0
LINE
  5
1F8
  8
0
 62
     0
 10
401.2892293949897
 20
1427.72960403923
 30
0.0
 11
401.2892293949897
 21
1467.318542347954
 31
0.0
  0
LINE
  5
1F9
  8
0
 62
     0
 10
35.9558960616539
 20
1466.068542347954
 30
0.0
 11
373.2892293949897
 21
1466.068542347954
 31
0.0
  0
SOLID
  5
1FA
  8
0
 62
     0
 10
35.9558960616539
 20
1470.73520901462
 30
0.0
 11
35.9558960616539
 21
1461.401875681287
 31
0.0
 12
7.9558960616539
 22
1466.068542347954
 32
0.0
 13
7.9558960616539
 23
1466.068542347954
 33
0.0
  0
SOLID
  5
1FB
  8
0
 62
     0
 10
373.2892293949897
 20
1461.401875681287
 30
0.0
 11
373.2892293949897
 21
1470.73520901462
 31
0.0
 12
401.2892293949897
 22
1466.068542347954
 32
0.0
 13
401.2892293949897
 23
1466.068542347954
 33
0.0
  0
TEXT
  5
1FC
  8
0
  6
CONTINUOUS
 62
     0
 10
172.0865627283218
 20
1477.544542347954
 30
0.0
 40
28.0
  1
393
  0
POINT
  5
1FD
  8
DEFPOINTS
 62
     0
 10
7.9558960616539
 20
1407.729604039228
 30
0.0
  0
POINT
  5
1FE
  8
DEFPOINTS
 62
     0
 10
401.2892293949897
 20
1407.72960403923
 30
0.0
  0
POINT
  5
1FF
  8
DEFPOINTS
 62
     0
 10
401.2892293949897
 20
1466.068542347954
 30
0.0
  0
ENDBLK
  5
200
  8
0
  0
BLOCK
  8
0
  2
*D5
 70
     1
 10
0.0
 20
0.0
 30
0.0
  3
*D5
  1

  0
LINE
  5
215
  8
0
 62
     0
 10
757.4453380290508
 20
624.0249039418302
 30
0.0
 11
401.2892293946259
 21
1327.692394588918
 31
0.0
  0
TEXT
  5
216
  8
0
  6
CONTINUOUS
 62
     0
 10
581.2546933266916
 20
997.541921549459
 30
0.0
 40
28.0
  1
817
 50
296.8459158698077
  0
SOLID
  5
217
  8
0
 62
     0
 10
753.2816250666423
 20
621.9174713463603
 30
0.0
 11
761.6090509914594
 21
626.1323365373
 31
0.0
 12
770.0899336018699
 22
599.0426261673789
 32
0.0
 13
770.0899336018699
 23
599.0426261673789
 33
0.0
  0
ARC
  5
218
  8
0
 62
     0
 10
401.2892293946259
 20
1327.692394588918
 30
0.0
 40
816.6666666667139
 50
296.7582182395429
 51
313.5968029859353
  0
POINT
  5
219
  8
DEFPOINTS
 62
     0
 10
770.0899336018699
 20
599.0426261673789
 30
0.0
  0
POINT
  5
21A
  8
DEFPOINTS
 62
     0
 10
401.2892293946259
 20
1327.692394588918
 30
0.0
  0
ENDBLK
  5
21B
  8
0
  0
BLOCK
  8
0
  2
*D6
 70
     1
 10
0.0
 20
0.0
 30
0.0
  3
*D6
  1

  0
LINE
  5
221
  8
0
 62
     0
 10
1780.055136026016
 20
417.7458136591851
 30
0.0
 11
1772.655583491258
 21
417.7458136591851
 31
0.0
  0
LINE
  5
222
  8
0
 62
     0
 10
1780.055136026014
 20
357.7458136590777
 30
0.0
 11
1772.655583491258
 21
357.7458136590777
 31
0.0
  0
LINE
  5
223
  8
0
 62
     0
 10
1771.405583491258
 20
329.7458136590777
 30
0.0
 11
1771.405583491258
 21
239.6218136590779
 31
0.0
  0
LINE
  5
224
  8
0
 62
     0
 10
1771.405583491258
 20
417.7458136591851
 30
0.0
 11
1771.405583491258
 21
357.7458136590777
 31
0.0
  0
LINE
  5
225
  8
0
 62
     0
 10
1771.405583491258
 20
445.7458136591851
 30
0.0
 11
1771.405583491258
 21
473.7458136591851
 31
0.0
  0
SOLID
  5
226
  8
0
 62
     0
 10
1766.738916824591
 20
445.7458136591851
 30
0.0
 11
1776.072250157924
 21
445.7458136591851
 31
0.0
 12
1771.405583491258
 22
417.7458136591851
 32
0.0
 13
1771.405583491258
 23
417.7458136591851
 33
0.0
  0
SOLID
  5
227
  8
0
 62
     0
 10
1776.072250157924
 20
329.7458136590777
 30
0.0
 11
1766.738916824591
 21
329.7458136590777
 31
0.0
 12
1771.405583491258
 22
357.7458136590777
 32
0.0
 13
1771.405583491258
 23
357.7458136590777
 33
0.0
  0
TEXT
  5
228
  8
0
  6
CONTINUOUS
 62
     0
 10
1759.929583491258
 20
249.1658136590779
 30
0.0
 40
28.0
  1
60
 50
90.0
  0
POINT
  5
229
  8
DEFPOINTS
 62
     0
 10
1760.055136026016
 20
417.7458136591851
 30
0.0
  0
POINT
  5
22A
  8
DEFPOINTS
 62
     0
 10
1760.055136026014
 20
357.7458136590777
 30
0.0
  0
POINT
  5
22B
  8
DEFPOINTS
 62
     0
 10
1771.405583491258
 20
357.7458136590777
 30
0.0
  0
ENDBLK
  5
22C
  8
0
  0
BLOCK
  8
0
  2
*D7
 70
     1
 10
0.0
 20
0.0
 30
0.0
  3
*D7
  1

  0
LINE
  5
230
  8
0
 62
     0
 10
1695.540504237889
 20
452.4368771841224
 30
0.0
 11
1695.540504237889
 21
489.0209607890284
 31
0.0
  0
LINE
  5
231
  8
0
 62
     0
 10
1721.540504237889
 20
451.9599283938084
 30
0.0
 11
1721.540504237889
 21
489.0209607890284
 31
0.0
  0
LINE
  5
232
  8
0
 62
     0
 10
1749.540504237889
 20
487.7709607890284
 30
0.0
 11
1840.084504237888
 21
487.7709607890284
 31
0.0
  0
LINE
  5
233
  8
0
 62
     0
 10
1695.540504237889
 20
487.7709607890284
 30
0.0
 11
1721.540504237889
 21
487.7709607890284
 31
0.0
  0
LINE
  5
234
  8
0
 62
     0
 10
1667.540504237889
 20
487.7709607890284
 30
0.0
 11
1639.540504237889
 21
487.7709607890284
 31
0.0
  0
SOLID
  5
235
  8
0
 62
     0
 10
1667.540504237889
 20
483.1042941223617
 30
0.0
 11
1667.540504237889
 21
492.4376274556951
 31
0.0
 12
1695.540504237889
 22
487.7709607890284
 32
0.0
 13
1695.540504237889
 23
487.7709607890284
 33
0.0
  0
SOLID
  5
236
  8
0
 62
     0
 10
1749.540504237889
 20
492.4376274556951
 30
0.0
 11
1749.540504237889
 21
483.1042941223617
 31
0.0
 12
1721.540504237889
 22
487.7709607890284
 32
0.0
 13
1721.540504237889
 23
487.7709607890284
 33
0.0
  0
TEXT
  5
237
  8
0
  6
CONTINUOUS
 62
     0
 10
1787.392504237889
 20
499.2469607890284
 30
0.0
 40
28.0
  1
26
  0
POINT
  5
238
  8
DEFPOINTS
 62
     0
 10
1695.540504237889
 20
432.4368771841224
 30
0.0
  0
POINT
  5
239
  8
DEFPOINTS
 62
     0
 10
1721.540504237889
 20
431.9599283938084
 30
0.0
  0
POINT
  5
23A
  8
DEFPOINTS
 62
     0
 10
1721.540504237889
 20
487.7709607890284
 30
0.0
  0
ENDBLK
  5
23B
  8
0
  0
BLOCK
  8
0
  2
LUO-LIGHT_MOD-D85
 70
     0
 10
0.0
 20
0.0
 30
0.0
  3
LUO-LIGHT_MOD-D85
  1

  0
ARC
  5
E29
  8
0
 62
     7
 10
-0.00190510125731
 20
0.00131671749148
 30
0.0
 40
423.3333333333463
 50
296.6767374787575
 51
312.2928609746602
1001
ACAD_DSTYLE_DIMRADIAL_EXTE
1070
   387
1070
     1
1070
   388
1040
5.49778714378212
1070
   390
1040
6.27843845391007
1001
ACAD
1000
DSTYLE
1002
{
1070
    41
1040
28.0
1070
   289
1070
     2
1070
    42
1040
20.0
1070
   147
1040
11.0
1070
   140
1040
28.0
1002
}
1001
PE_URL
1000

  0
POLYLINE
  5
E2A
  8
LUO-LIGHT
 66
     1
 10
0.0
 20
0.0
 30
0.0
  0
VERTEX
  5
119E
  8
LUO-LIGHT
 10
299.3399656010525
 20
-299.340553984827
 30
0.0
 42
0.19767899097095
  0
VERTEX
  5
119F
  8
LUO-LIGHT
 10
423.3266588373328
 20
-2.00817695339367
 30
0.0
 42
0.4156045679103
  0
VERTEX
  5
11A0
  8
LUO-LIGHT
 10
421.3266813699058
 20
0.00131671748045
 30
0.0
  0
VERTEX
  5
11A1
  8
LUO-LIGHT
 10
365.3259537385168
 20
0.00131671748045
 30
0.0
 42
0.41261103180899
  0
VERTEX
  5
11A2
  8
LUO-LIGHT
 10
363.3259837083719
 20
-1.98773437740613
 30
0.0
 42
-0.19676189858484
  0
VERTEX
  5
11A3
  8
LUO-LIGHT
 10
257.6327850996087
 20
-256.1929016330157
 30
0.0
 42
-0.00070085017048
  0
SEQEND
  5
13AC
  8
LUO-LIGHT
  0
POLYLINE
  5
E2B
  8
LUO-LIGHT
 66
     1
 10
0.0
 20
0.0
 30
0.0
  0
VERTEX
  5
11A4
  8
LUO-LIGHT
 10
367.126097094669
 20
-60.01600765343801
 30
0.0
 42
-1.0
  0
VERTEX
  5
11A5
  8
LUO-LIGHT
 10
368.3439749560005
 20
-52.00808822858869
 30
0.0
  0
VERTEX
  5
11A6
  8
LUO-LIGHT
 10
375.8419477140163
 20
-53.14703921877492
 30
0.0
  0
SEQEND
  5
13AD
  8
LUO-LIGHT
  0
POLYLINE
  5
E2C
  8
LUO-LIGHT
 66
     1
 10
0.0
 20
0.0
 30
0.0
  0
VERTEX
  5
11A7
  8
LUO-LIGHT
 10
296.0920209923499
 20
-296.0900466925276
 30
0.0
 42
0.34490170683451
  0
VERTEX
  5
11A8
  8
LUO-LIGHT
 10
296.9093246057158
 20
-289.3583110404876
 30
0.0
  0
VERTEX
  5
11A9
  8
LUO-LIGHT
 10
292.6970957558826
 20
-282.9194153982593
 30
0.0
  0
SEQEND
  5
13AE
  8
LUO-LIGHT
  0
POLYLINE
  5
E2D
  8
LUO-LIGHT
 66
     1
 10
0.0
 20
0.0
 30
0.0
  0
VERTEX
  5
11AA
  8
LUO-LIGHT
 10
409.3480120301559
 20
-66.44851631693803
 30
0.0
 42
1.0
  0
VERTEX
  5
11AB
  8
LUO-LIGHT
 10
410.5672724271265
 20
-58.44080727599635
 30
0.0
  0
VERTEX
  5
11AC
  8
LUO-LIGHT
 10
403.0293377514155
 20
-57.2916956016212
 30
0.0
  0
SEQEND
  5
13AF
  8
LUO-LIGHT
  0
POLYLINE
  5
E2E
  8
LUO-LIGHT
 66
     1
 10
0.0
 20
0.0
 30
0.0
  0
VERTEX
  5
11AD
  8
LUO-LIGHT
 10
60.0154192696757
 20
-367.1266854784313
 30
0.0
 42
1.0
  0
VERTEX
  5
11AE
  8
LUO-LIGHT
 10
52.0074998448265
 20
-368.3445633397629
 30
0.0
  0
VERTEX
  5
11AF
  8
LUO-LIGHT
 10
53.15121023759298
 20
-375.8738683247096
 30
0.0
  0
SEQEND
  5
13B0
  8
LUO-LIGHT
  0
POLYLINE
  5
E2F
  8
LUO-LIGHT
 66
     1
 10
0.0
 20
0.0
 30
0.0
  0
VERTEX
  5
11B0
  8
LUO-LIGHT
 10
66.4479279331756
 20
-409.3486004139187
 30
0.0
 42
-1.0
  0
VERTEX
  5
11B1
  8
LUO-LIGHT
 10
58.44021889223382
 20
-410.5678608108886
 30
0.0
  0
VERTEX
  5
11B2
  8
LUO-LIGHT
 10
57.29587861463938
 20
-403.061225510205
 30
0.0
  0
SEQEND
  5
13B1
  8
LUO-LIGHT
  0
POLYLINE
  5
E30
  8
LUO-LIGHT
 66
     1
 10
0.0
 20
0.0
 30
0.0
  0
VERTEX
  5
11B3
  8
LUO-LIGHT
 10
260.948289328265
 20
-259.510411766871
 30
0.0
 42
-0.29413349336732
  0
VERTEX
  5
11B4
  8
LUO-LIGHT
 10
266.901572717042
 20
-259.3413373275851
 30
0.0
  0
VERTEX
  5
11B5
  8
LUO-LIGHT
 10
273.233686063187
 20
-263.4864896716921
 30
0.0
  0
SEQEND
  5
13B2
  8
LUO-LIGHT
  0
POLYLINE
  5
E31
  8
LUO-LIGHT
 66
     1
 10
0.0
 20
0.0
 30
0.0
  0
VERTEX
  5
11B6
  8
LUO-LIGHT
 10
61.15872746601985
 20
-374.6533427130868
 30
0.0
  0
VERTEX
  5
11B7
  8
LUO-LIGHT
 10
60.0154192696757
 20
-367.1266854784313
 30
0.0
  0
SEQEND
  5
13B3
  8
LUO-LIGHT
  0
POLYLINE
  5
E32
  8
LUO-LIGHT
 66
     1
 10
0.0
 20
0.0
 30
0.0
  0
VERTEX
  5
11B8
  8
LUO-LIGHT
 10
65.30339271990465
 20
-401.8406863755557
 30
0.0
  0
VERTEX
  5
11B9
  8
LUO-LIGHT
 10
66.4479279331756
 20
-409.3486004139185
 30
0.0
  0
SEQEND
  5
13B4
  8
LUO-LIGHT
  0
POLYLINE
  5
E33
  8
LUO-LIGHT
 66
     1
 10
0.0
 20
0.0
 30
0.0
  0
VERTEX
  5
11BA
  8
LUO-LIGHT
 10
263.4883585991503
 20
-273.2332290988805
 30
0.0
  0
VERTEX
  5
11BB
  8
LUO-LIGHT
 10
259.3458047369161
 20
-266.8875184621248
 30
0.0
 42
-0.29489604193831
  0
VERTEX
  5
11BC
  8
LUO-LIGHT
 10
259.53119454595
 20
-260.9217417063319
 30
0.0
 42
-0.04538912977951
  0
SEQEND
  5
13B5
  8
LUO-LIGHT
  0
POLYLINE
  5
E34
  8
LUO-LIGHT
 66
     1
 10
0.0
 20
0.0
 30
0.0
  0
VERTEX
  5
11BD
  8
LUO-LIGHT
 10
282.9159864002033
 20
-292.7016712719541
 30
0.0
  0
VERTEX
  5
11BE
  8
LUO-LIGHT
 10
289.3608221853859
 20
-296.9117599676377
 30
0.0
 42
0.34490170683451
  0
VERTEX
  5
11BF
  8
LUO-LIGHT
 10
296.0920209923499
 20
-296.0900466925278
 30
0.0
  0
SEQEND
  5
13B6
  8
LUO-LIGHT
  0
POLYLINE
  5
E35
  8
LUO-LIGHT
 66
     1
 10
0.0
 20
0.0
 30
0.0
  0
VERTEX
  5
11C0
  8
LUO-LIGHT
 10
374.622317839064
 20
-61.15469251066895
 30
0.0
  0
VERTEX
  5
11C1
  8
LUO-LIGHT
 10
367.126097094669
 20
-60.01600765343801
 30
0.0
  0
SEQEND
  5
13B7
  8
LUO-LIGHT
  0
POLYLINE
  5
E36
  8
LUO-LIGHT
 66
     1
 10
0.0
 20
0.0
 30
0.0
  0
VERTEX
  5
11C2
  8
LUO-LIGHT
 10
401.8096340948734
 20
-65.29933707037378
 30
0.0
  0
VERTEX
  5
11C3
  8
LUO-LIGHT
 10
409.3480120301559
 20
-66.44851631693803
 30
0.0
  0
SEQEND
  5
13B8
  8
LUO-LIGHT
  0
POLYLINE
  5
E37
  8
LUO-LIGHT
 66
     1
 10
0.0
 20
0.0
 30
0.0
  0
VERTEX
  5
11C4
  8
LUO-LIGHT
 10
53.15121023759298
 20
-375.8738683247096
 30
0.0
  0
VERTEX
  5
11C5
  8
LUO-LIGHT
 10
57.29587861464495
 20
-403.0612255102042
 30
0.0
  0
SEQEND
  5
13B9
  8
LUO-LIGHT
  0
POLYLINE
  5
E38
  8
LUO-LIGHT
 66
     1
 10
0.0
 20
0.0
 30
0.0
  0
VERTEX
  5
11C6
  8
LUO-LIGHT
 10
61.15872746602531
 20
-374.6533427130861
 30
0.0
  0
VERTEX
  5
11C7
  8
LUO-LIGHT
 10
65.30339271990465
 20
-401.8406863755557
 30
0.0
  0
SEQEND
  5
13BA
  8
LUO-LIGHT
  0
POLYLINE
  5
E39
  8
LUO-LIGHT
 66
     1
 10
0.0
 20
0.0
 30
0.0
  0
VERTEX
  5
11C8
  8
LUO-LIGHT
 10
375.8419477140167
 20
-53.14703921876935
 30
0.0
  0
VERTEX
  5
11C9
  8
LUO-LIGHT
 10
403.0262713274946
 20
-57.29122814419713
 30
0.0
  0
SEQEND
  5
13BB
  8
LUO-LIGHT
  0
POLYLINE
  5
E3A
  8
LUO-LIGHT
 66
     1
 10
0.0
 20
0.0
 30
0.0
  0
VERTEX
  5
11CA
  8
LUO-LIGHT
 10
374.622317839064
 20
-61.15469251066895
 30
0.0
  0
VERTEX
  5
11CB
  8
LUO-LIGHT
 10
401.8096340948744
 20
-65.2993370703681
 30
0.0
  0
SEQEND
  5
13BC
  8
LUO-LIGHT
  0
POLYLINE
  5
E3B
  8
LUO-LIGHT
 66
     1
 10
0.0
 20
0.0
 30
0.0
  0
VERTEX
  5
11CC
  8
LUO-LIGHT
 10
273.2336860631909
 20
-263.4864896716882
 30
0.0
  0
VERTEX
  5
11CD
  8
LUO-LIGHT
 10
292.6970957558826
 20
-282.9194153982593
 30
0.0
  0
SEQEND
  5
13BD
  8
LUO-LIGHT
  0
POLYLINE
  5
E3C
  8
LUO-LIGHT
 66
     1
 10
0.0
 20
0.0
 30
0.0
  0
VERTEX
  5
11CE
  8
LUO-LIGHT
 10
263.4883585991503
 20
-273.2332290988805
 30
0.0
  0
VERTEX
  5
11CF
  8
LUO-LIGHT
 10
282.9159864002033
 20
-292.7016712719541
 30
0.0
  0
SEQEND
  5
13BE
  8
LUO-LIGHT
  0
POLYLINE
  5
E3D
  8
LUO-LIGHT
 66
     1
 10
0.0
 20
0.0
 30
0.0
 70
     1
  0
VERTEX
  5
11D0
  8
LUO-LIGHT
 10
246.7973926505222
 20
-248.2602326491578
 30
0.0
  0
VERTEX
  5
11D1
  8
LUO-LIGHT
 10
248.2130893941853
 20
-246.8475038252209
 30
0.0
  0
VERTEX
  5
11D2
  8
LUO-LIGHT
 10
291.6637752531115
 20
-290.2444807936067
 30
0.0
  0
VERTEX
  5
11D3
  8
LUO-LIGHT
 10
290.2480785094484
 20
-291.6572096175436
 30
0.0
  0
SEQEND
  5
13BF
  8
LUO-LIGHT
  0
CIRCLE
  5
E3E
  8
LUO-LIGHT
 10
248.2374709638298
 20
-248.2380593476876
 30
0.0
 40
0.5
  0
POLYLINE
  5
E3F
  8
LUO-LIGHT
 66
     1
 10
0.0
 20
0.0
 30
0.0
  0
VERTEX
  5
11D4
  8
LUO-LIGHT
 10
292.697095755883
 20
-282.9194153982593
 30
0.0
 42
0.17824132695408
  0
VERTEX
  5
11D5
  8
LUO-LIGHT
 10
406.2771154493697
 20
-25.57129123139873
 30
0.0
 42
0.42449197785951
  0
VERTEX
  5
11D6
  8
LUO-LIGHT
 10
392.937789320061
 20
-10.96287820429313
 30
0.0
 42
0.40400931074757
  0
VERTEX
  5
11D7
  8
LUO-LIGHT
 10
378.8314298761118
 20
-23.84376600303892
 30
0.0
 42
-0.17793860952693
  0
VERTEX
  5
11D8
  8
LUO-LIGHT
 10
273.2336860631872
 20
-263.4864896716921
 30
0.0
 42
-0.00387234717031
  0
SEQEND
  5
13C0
  8
LUO-LIGHT
  0
POLYLINE
  5
E40
  8
LUO-LIGHT
 66
     1
 10
0.0
 20
0.0
 30
0.0
  0
VERTEX
  5
11D9
  8
LUO-LIGHT
 10
282.9159864002037
 20
-292.701671271954
 30
0.0
 42
-0.17827167823494
  0
VERTEX
  5
11DA
  8
LUO-LIGHT
 10
25.53342362697481
 20
-406.3149830536714
 30
0.0
 42
-0.42449197785951
  0
VERTEX
  5
11DB
  8
LUO-LIGHT
 10
10.92501059987376
 20
-392.9756569243578
 30
0.0
 42
-0.40400931074757
  0
VERTEX
  5
11DC
  8
LUO-LIGHT
 10
23.80589839862367
 20
-378.8692974804129
 30
0.0
 42
0.17797612120497
  0
VERTEX
  5
11DD
  8
LUO-LIGHT
 10
263.4883585991496
 20
-273.2332290988808
 30
0.0
 42
0.00388869521987
  0
SEQEND
  5
13C1
  8
LUO-LIGHT
  0
POLYLINE
  5
E41
  8
LUO-LIGHT
 66
     1
 10
0.0
 20
0.0
 30
0.0
  0
VERTEX
  5
11DE
  8
LUO-LIGHT
 10
256.9135587298676
 20
-256.9141471136323
 30
0.0
  0
VERTEX
  5
11DF
  8
LUO-LIGHT
 10
256.9135587298672
 20
-256.9141471136328
 30
0.0
 42
-0.19748998274444
  0
SEQEND
  5
13C2
  8
LUO-LIGHT
  0
POLYLINE
  5
E42
  8
LUO-LIGHT
 66
     1
 10
0.0
 20
0.0
 30
0.0
  0
VERTEX
  5
11E0
  8
LUO-LIGHT
 10
256.2186441168082
 20
-257.6071871590624
 30
0.0
 42
-0.1967884398486
  0
VERTEX
  5
11E1
  8
LUO-LIGHT
 10
1.98714599364052
 20
-363.3265720921378
 30
0.0
 42
0.41261103180899
  0
VERTEX
  5
11E2
  8
LUO-LIGHT
 10
-0.00190510124662
 20
-365.3265421222828
 30
0.0
  0
VERTEX
  5
11E3
  8
LUO-LIGHT
 10
-0.00190510124662
 20
-421.3272697536712
 30
0.0
 42
0.4156045679103
  0
VERTEX
  5
11E4
  8
LUO-LIGHT
 10
2.00758856962693
 20
-423.3272472210984
 30
0.0
 42
0.19767899097095
  0
VERTEX
  5
11E5
  8
LUO-LIGHT
 10
299.3399656010607
 20
-299.3405539848189
 30
0.0
  0
SEQEND
  5
13C3
  8
LUO-LIGHT
  0
ARC
  5
E43
  8
LUO-LIGHT
 10
8.62939907412692
 20
-17.45829498566707
 30
0.0
 40
361.8675130259998
 50
284.557483032469
 51
308.2013459415028
  0
ARC
  5
E44
  8
LUO-LIGHT
 10
239.9846702609967
 20
-311.6528291824762
 30
0.0
 40
12.40000000000013
 50
39.40426827050214
 51
127.6051489168472
  0
ARC
  5
E45
  8
LUO-LIGHT
 10
239.9846702609968
 20
-311.6528291824764
 30
0.0
 40
12.40000000000006
 50
307.6051489168992
 51
39.40426827050312
  0
ARC
  5
E46
  8
LUO-LIGHT
 10
-0.09476062488972
 20
0.13227536421289
 30
0.0
 40
405.9074134652548
 50
285.1621823608682
 51
307.597090417158
  0
ARC
  5
E47
  8
LUO-LIGHT
 10
102.8282165388094
 20
-379.6768151355258
 30
0.0
 40
12.39999999999995
 50
193.3476907242165
 51
285.1609409308447
  0
LINE
  5
E48
  8
LUO-LIGHT
 10
90.76317710092195
 20
-382.5394753253175
 30
0.0
 11
90.76317710092184
 21
-382.5394753253173
 31
0.0
  0
ARC
  5
E49
  8
LUO-LIGHT
 10
102.8282165388092
 20
-379.6768151355254
 30
0.0
 40
12.39999999999984
 50
105.1609409308207
 51
193.3476907242177
  0
ENDBLK
  5
296
  8
0
  0
BLOCK
  8
0
  2
LUO-LIGHT_MOD-D163
 70
     0
 10
0.0
 20
0.0
 30
0.0
  3
LUO-LIGHT_MOD-D163
  1

  0
CIRCLE
  5
DEE
  8
LUO-LIGHT
 10
500.0109003901828
 20
-500.0133614130433
 30
0.0
 40
0.5
  0
POLYLINE
  5
DEF
  8
LUO-LIGHT
 66
     1
 10
0.0
 20
0.0
 30
0.0
  0
VERTEX
  5
11E6
  8
LUO-LIGHT
 10
0.00000000000932
 20
-756.6666666666732
 30
0.0
  0
VERTEX
  5
11E7
  8
LUO-LIGHT
 10
0.00000000000932
 20
-816.6666666666732
 30
0.0
 42
0.41421356237309
  0
VERTEX
  5
11E8
  8
LUO-LIGHT
 10
816.6666666666722
 20
-0.00000000000318
 30
0.0
  0
VERTEX
  5
11E9
  8
LUO-LIGHT
 10
756.6666666666722
 20
-0.00000000000318
 30
0.0
 42
-0.41421356237309
  0
VERTEX
  5
11EA
  8
LUO-LIGHT
 10
0.00000000000932
 20
-756.6666666666732
 30
0.0
  0
SEQEND
  5
13C4
  8
LUO-LIGHT
  0
POLYLINE
  5
DF0
  8
LUO-LIGHT
 66
     1
 10
0.0
 20
0.0
 30
0.0
  0
VERTEX
  5
11EB
  8
LUO-LIGHT
 10
569.5486835918675
 20
-522.5103275943923
 30
0.0
 42
0.4091030935414
  0
VERTEX
  5
11EC
  8
LUO-LIGHT
 10
570.2098506581553
 20
-541.7737302463959
 30
0.0
 42
0.41934256561281
  0
VERTEX
  5
11ED
  8
LUO-LIGHT
 10
589.8129494231782
 20
-541.1009039791563
 30
0.0
 42
0.17995582455181
  0
VERTEX
  5
11EE
  8
LUO-LIGHT
 10
800.0529262459943
 20
-24.13035944826493
 30
0.0
 42
0.41934256561278
  0
VERTEX
  5
11EF
  8
LUO-LIGHT
 10
786.4833693696344
 20
-9.96698052386364
 30
0.0
 42
0.4091030935414
  0
VERTEX
  5
11F0
  8
LUO-LIGHT
 10
772.5654233140574
 20
-23.30139469235746
 30
0.0
 42
-0.17995582455183
  0
VERTEX
  5
11F1
  8
LUO-LIGHT
 10
569.5486835918684
 20
-522.5103275943923
 30
0.0
  0
SEQEND
  5
13C5
  8
LUO-LIGHT
  0
POLYLINE
  5
DF1
  8
LUO-LIGHT
 66
     1
 10
0.0
 20
0.0
 30
0.0
  0
VERTEX
  5
11F2
  8
LUO-LIGHT
 10
522.5078665715284
 20
-569.5511446147318
 30
0.0
 42
-0.4091030935414
  0
VERTEX
  5
11F3
  8
LUO-LIGHT
 10
541.7712692235325
 20
-570.212311681019
 30
0.0
 42
-0.41934256561281
  0
VERTEX
  5
11F4
  8
LUO-LIGHT
 10
541.0984429562925
 20
-589.8154104460423
 30
0.0
 42
-0.17995582455181
  0
VERTEX
  5
11F5
  8
LUO-LIGHT
 10
24.12789842540133
 20
-800.0553872688586
 30
0.0
 42
-0.41934256561278
  0
VERTEX
  5
11F6
  8
LUO-LIGHT
 10
9.9645195010005
 20
-786.4858303924982
 30
0.0
 42
-0.4091030935414
  0
VERTEX
  5
11F7
  8
LUO-LIGHT
 10
23.29893366949341
 20
-772.5678843369219
 30
0.0
 42
0.17995582455183
  0
VERTEX
  5
11F8
  8
LUO-LIGHT
 10
522.5078665715284
 20
-569.551144614732
 30
0.0
  0
SEQEND
  5
13C6
  8
LUO-LIGHT
  0
POLYLINE
  5
DF2
  8
LUO-LIGHT
 66
     1
 10
0.0
 20
0.0
 30
0.0
210
0.0
220
0.0
230
-1.0
  0
VERTEX
  5
11F9
  8
LUO-LIGHT
 10
-535.0441310974754
 20
-535.0465921203406
 30
0.0
 42
-0.19822732922812
  0
VERTEX
  5
11FA
  8
LUO-LIGHT
 10
-756.6640374074584
 20
-1.99718861513793
 30
0.0
 42
0.41344164585429
  0
VERTEX
  5
11FB
  8
LUO-LIGHT
 10
-758.6640304578766
 20
-0.00246102286542
 30
0.0
  0
VERTEX
  5
11FC
  8
LUO-LIGHT
 10
-814.6642116708033
 20
-0.00246102286519
 30
0.0
 42
0.41493279648664
  0
VERTEX
  5
11FD
  8
LUO-LIGHT
 10
-816.6642056438093
 20
-2.00737100649712
 30
0.0
 42
0.19827441295595
  0
VERTEX
  5
11FE
  8
LUO-LIGHT
 10
-577.4705379686686
 20
-577.47299899153
 30
0.0
 42
0.19827441295595
  0
VERTEX
  5
11FF
  8
LUO-LIGHT
 10
-2.00490998363352
 20
-816.6666666666733
 30
0.0
 42
0.41493279648664
  0
VERTEX
  5
1200
  8
LUO-LIGHT
 10
-0.0000000000025
 20
-814.6666726936671
 30
0.0
  0
VERTEX
  5
1201
  8
LUO-LIGHT
 10
-0.0000000000025
 20
-758.6664914807402
 30
0.0
 42
0.41344164585429
  0
VERTEX
  5
1202
  8
LUO-LIGHT
 10
-1.99472759227433
 20
-756.6664984303227
 30
0.0
 42
-0.19822732922812
  0
VERTEX
  5
1203
  8
LUO-LIGHT
 10
-535.0441310974763
 20
-535.0465921203402
 30
0.0
 42
-5.04471307712164
  0
SEQEND
  5
13C7
  8
LUO-LIGHT
  0
POLYLINE
  5
DF3
  8
LUO-LIGHT
 66
     1
 10
0.0
 20
0.0
 30
0.0
  0
VERTEX
  5
1204
  8
LUO-LIGHT
 10
571.5226242192305
 20
-562.014482162544
 30
0.0
 42
0.47604744468374
  0
VERTEX
  5
1205
  8
LUO-LIGHT
 10
566.8902635348834
 20
-561.5345230276605
 30
0.0
  0
VERTEX
  5
1206
  8
LUO-LIGHT
 10
564.2072421634764
 20
-564.2173586724052
 30
0.0
  0
VERTEX
  5
1207
  8
LUO-LIGHT
 10
561.5240457894886
 20
-566.9003693076179
 30
0.0
 42
0.47604744468375
  0
VERTEX
  5
1208
  8
LUO-LIGHT
 10
562.0036842464376
 20
-571.5327632062038
 30
0.0
  0
VERTEX
  5
1209
  8
LUO-LIGHT
 10
567.6857189363834
 20
-575.2474887068306
 30
0.0
 42
0.34490170683451
  0
VERTEX
  5
120A
  8
LUO-LIGHT
 10
574.4172148883206
 20
-574.4282132132203
 30
0.0
 42
0.34490170683451
  0
VERTEX
  5
120B
  8
LUO-LIGHT
 10
575.2369563701234
 20
-567.6967739920451
 30
0.0
  0
VERTEX
  5
120C
  8
LUO-LIGHT
 10
571.5226242192305
 20
-562.014482162544
 30
0.0
  0
SEQEND
  5
13C8
  8
LUO-LIGHT
  0
POLYLINE
  5
DF4
  8
LUO-LIGHT
 66
     1
 10
0.0
 20
0.0
 30
0.0
  0
VERTEX
  5
120D
  8
LUO-LIGHT
 10
538.0759576637054
 20
-538.0844401653173
 30
0.0
 42
0.34490170683451
  0
VERTEX
  5
120E
  8
LUO-LIGHT
 10
537.2562161819035
 20
-544.815879386492
 30
0.0
  0
VERTEX
  5
120F
  8
LUO-LIGHT
 10
540.9727936999454
 20
-550.5016062430418
 30
0.0
 42
0.47604744468374
  0
VERTEX
  5
1210
  8
LUO-LIGHT
 10
545.6051543842925
 20
-550.9815653779251
 30
0.0
  0
VERTEX
  5
1211
  8
LUO-LIGHT
 10
548.2882774593775
 20
-548.2986280365412
 30
0.0
  0
VERTEX
  5
1212
  8
LUO-LIGHT
 10
550.9725616341436
 20
-545.6145296758532
 30
0.0
 42
0.47604744468374
  0
VERTEX
  5
1213
  8
LUO-LIGHT
 10
550.4929231771932
 20
-540.9821357772673
 30
0.0
  0
VERTEX
  5
1214
  8
LUO-LIGHT
 10
544.8074536156425
 20
-537.2651646717059
 30
0.0
 42
0.34490170683451
  0
VERTEX
  5
1215
  8
LUO-LIGHT
 10
538.0759576637054
 20
-538.0844401653173
 30
0.0
  0
SEQEND
  5
13C9
  8
LUO-LIGHT
  0
POLYLINE
  5
DF5
  8
LUO-LIGHT
 66
     1
 10
0.0
 20
0.0
 30
0.0
  0
VERTEX
  5
1216
  8
LUO-LIGHT
 10
758.7458175368763
 20
-58.01168379257979
 30
0.0
 42
0.34490170683451
  0
VERTEX
  5
1217
  8
LUO-LIGHT
 10
762.5070165700274
 20
-63.65416834447706
 30
0.0
  0
VERTEX
  5
1218
  8
LUO-LIGHT
 10
770.1056744040395
 20
-65.86158234435811
 30
0.0
  0
SEQEND
  5
13CA
  8
LUO-LIGHT
  0
POLYLINE
  5
DF6
  8
LUO-LIGHT
 66
     1
 10
0.0
 20
0.0
 30
0.0
  0
VERTEX
  5
1219
  8
LUO-LIGHT
 10
809.9923425941163
 20
-61.92965336631778
 30
0.0
 42
-0.34490170683451
  0
VERTEX
  5
121A
  8
LUO-LIGHT
 10
805.4170971362744
 20
-66.93478863780228
 30
0.0
  0
VERTEX
  5
121B
  8
LUO-LIGHT
 10
797.5259345407533
 20
-67.96733439193031
 30
0.0
  0
SEQEND
  5
13CB
  8
LUO-LIGHT
  0
POLYLINE
  5
DF7
  8
LUO-LIGHT
 66
     1
 10
0.0
 20
0.0
 30
0.0
  0
VERTEX
  5
121C
  8
LUO-LIGHT
 10
798.5886695110373
 20
-54.06702618133431
 30
0.0
  0
VERTEX
  5
121D
  8
LUO-LIGHT
 10
806.2311435609643
 20
-56.2871688144221
 30
0.0
 42
-0.34490170683451
  0
VERTEX
  5
121E
  8
LUO-LIGHT
 10
809.9923425941163
 20
-61.92965336631778
 30
0.0
  0
SEQEND
  5
13CC
  8
LUO-LIGHT
  0
POLYLINE
  5
DF8
  8
LUO-LIGHT
 66
     1
 10
0.0
 20
0.0
 30
0.0
  0
VERTEX
  5
121F
  8
LUO-LIGHT
 10
771.1669839290514
 20
-51.97992256454063
 30
0.0
  0
VERTEX
  5
1220
  8
LUO-LIGHT
 10
763.3210629947205
 20
-53.00654852109665
 30
0.0
 42
0.34490170683451
  0
VERTEX
  5
1221
  8
LUO-LIGHT
 10
758.7458175368763
 20
-58.01168379257979
 30
0.0
  0
SEQEND
  5
13CD
  8
LUO-LIGHT
  0
POLYLINE
  5
DF9
  8
LUO-LIGHT
 66
     1
 10
0.0
 20
0.0
 30
0.0
  0
VERTEX
  5
1222
  8
LUO-LIGHT
 10
386.8177085844504
 20
-699.2017159584614
 30
0.0
 42
0.41883811782572
  0
VERTEX
  5
1223
  8
LUO-LIGHT
 10
391.5693115463894
 20
-682.1785077283903
 30
0.0
 42
0.40960408017895
  0
VERTEX
  5
1224
  8
LUO-LIGHT
 10
374.8123533705977
 20
-677.5012218122621
 30
0.0
 42
-0.05960559621251
  0
VERTEX
  5
1225
  8
LUO-LIGHT
 10
204.4151608312609
 20
-746.7978233094655
 30
0.0
 42
0.40960408017853
  0
VERTEX
  5
1226
  8
LUO-LIGHT
 10
195.6787411926671
 20
-761.842677005867
 30
0.0
 42
0.41883811782598
  0
VERTEX
  5
1227
  8
LUO-LIGHT
 10
210.9626414433874
 20
-770.7179089621934
 30
0.0
 42
0.05960559621251
  0
VERTEX
  5
1228
  8
LUO-LIGHT
 10
386.81770858445
 20
-699.2017159584618
 30
0.0
  0
SEQEND
  5
13CE
  8
LUO-LIGHT
  0
POLYLINE
  5
DFA
  8
LUO-LIGHT
 66
     1
 10
0.0
 20
0.0
 30
0.0
  0
VERTEX
  5
1229
  8
LUO-LIGHT
 10
699.1936888179616
 20
-386.8302305717129
 30
0.0
 42
-0.41883811782572
  0
VERTEX
  5
122A
  8
LUO-LIGHT
 10
682.1704122172998
 20
-391.581588580706
 30
0.0
 42
-0.40960408017895
  0
VERTEX
  5
122B
  8
LUO-LIGHT
 10
677.4933674229515
 20
-374.824563103668
 30
0.0
 42
0.05960559621251
  0
VERTEX
  5
122C
  8
LUO-LIGHT
 10
746.7924208133447
 20
-204.4283677132032
 30
0.0
 42
-0.40960408017853
  0
VERTEX
  5
122D
  8
LUO-LIGHT
 10
761.8374002193593
 20
-195.692164560784
 30
0.0
 42
-0.41883811782598
  0
VERTEX
  5
122E
  8
LUO-LIGHT
 10
770.7124122497785
 20
-210.9761925185078
 30
0.0
 42
-0.05960559621251
  0
VERTEX
  5
122F
  8
LUO-LIGHT
 10
699.1936888179621
 20
-386.8302305717125
 30
0.0
  0
SEQEND
  5
13CF
  8
LUO-LIGHT
  0
POLYLINE
  5
DFB
  8
LUO-LIGHT
 66
     1
 10
0.0
 20
0.0
 30
0.0
  0
VERTEX
  5
1230
  8
LUO-LIGHT
 10
540.9727936999454
 20
-550.5016062430418
 30
0.0
  0
VERTEX
  5
1231
  8
LUO-LIGHT
 10
562.0036842464376
 20
-571.5327632062038
 30
0.0
  0
SEQEND
  5
13D0
  8
LUO-LIGHT
  0
POLYLINE
  5
DFC
  8
LUO-LIGHT
 66
     1
 10
0.0
 20
0.0
 30
0.0
  0
VERTEX
  5
1232
  8
LUO-LIGHT
 10
550.4929231771927
 20
-540.9821357772672
 30
0.0
  0
VERTEX
  5
1233
  8
LUO-LIGHT
 10
571.5226242192304
 20
-562.014482162544
 30
0.0
  0
SEQEND
  5
13D1
  8
LUO-LIGHT
  0
POLYLINE
  5
DFD
  8
LUO-LIGHT
 66
     1
 10
0.0
 20
0.0
 30
0.0
  0
VERTEX
  5
1234
  8
LUO-LIGHT
 10
771.1669839290523
 20
-51.97992256452881
 30
0.0
  0
VERTEX
  5
1235
  8
LUO-LIGHT
 10
798.5886695110373
 20
-54.06702618133431
 30
0.0
  0
SEQEND
  5
13D2
  8
LUO-LIGHT
  0
POLYLINE
  5
DFE
  8
LUO-LIGHT
 66
     1
 10
0.0
 20
0.0
 30
0.0
  0
VERTEX
  5
1236
  8
LUO-LIGHT
 10
770.1056744040395
 20
-65.86158234435811
 30
0.0
  0
VERTEX
  5
1237
  8
LUO-LIGHT
 10
797.5259345407544
 20
-67.96733439191894
 30
0.0
  0
SEQEND
  5
13D3
  8
LUO-LIGHT
  0
POLYLINE
  5
DFF
  8
LUO-LIGHT
 66
     1
 10
0.0
 20
0.0
 30
0.0
 70
     1
  0
VERTEX
  5
1238
  8
LUO-LIGHT
 10
498.5708220768752
 20
-500.0355347145136
 30
0.0
  0
VERTEX
  5
1239
  8
LUO-LIGHT
 10
499.9865188205382
 20
-498.6228058905766
 30
0.0
  0
VERTEX
  5
123A
  8
LUO-LIGHT
 10
569.5701466648782
 20
-568.1723485002125
 30
0.0
  0
VERTEX
  5
123B
  8
LUO-LIGHT
 10
568.154449921215
 20
-569.5850773241493
 30
0.0
  0
SEQEND
  5
13D4
  8
LUO-LIGHT
  0
POLYLINE
  5
E00
  8
LUO-LIGHT
 66
     1
 10
0.0
 20
0.0
 30
0.0
  0
VERTEX
  5
123C
  8
LUO-LIGHT
 10
57.99722234731121
 20
-758.7491959456629
 30
0.0
 42
-0.34490170683451
  0
VERTEX
  5
123D
  8
LUO-LIGHT
 10
63.63964741092536
 20
-762.510484220558
 30
0.0
  0
VERTEX
  5
123E
  8
LUO-LIGHT
 10
65.84694122925043
 20
-770.109176966369
 30
0.0
  0
SEQEND
  5
13D5
  8
LUO-LIGHT
  0
POLYLINE
  5
E01
  8
LUO-LIGHT
 66
     1
 10
0.0
 20
0.0
 30
0.0
  0
VERTEX
  5
123F
  8
LUO-LIGHT
 10
61.9143813993503
 20
-809.9957829635716
 30
0.0
 42
0.34490170683451
  0
VERTEX
  5
1240
  8
LUO-LIGHT
 10
66.91958903284262
 20
-805.4206166681229
 30
0.0
  0
VERTEX
  5
1241
  8
LUO-LIGHT
 10
67.95225959441427
 20
-797.5294704044825
 30
0.0
  0
SEQEND
  5
13D6
  8
LUO-LIGHT
  0
POLYLINE
  5
E02
  8
LUO-LIGHT
 66
     1
 10
0.0
 20
0.0
 30
0.0
  0
VERTEX
  5
1242
  8
LUO-LIGHT
 10
51.96526466536056
 20
-771.1702669372489
 30
0.0
  0
VERTEX
  5
1243
  8
LUO-LIGHT
 10
52.99201471382162
 20
-763.3243622411119
 30
0.0
 42
-0.34490170683451
  0
VERTEX
  5
1244
  8
LUO-LIGHT
 10
57.99722234731121
 20
-758.7491959456629
 30
0.0
  0
SEQEND
  5
13D7
  8
LUO-LIGHT
  0
POLYLINE
  5
E03
  8
LUO-LIGHT
 66
     1
 10
0.0
 20
0.0
 30
0.0
  0
VERTEX
  5
1245
  8
LUO-LIGHT
 10
54.05193457722339
 20
-798.5919855256864
 30
0.0
  0
VERTEX
  5
1246
  8
LUO-LIGHT
 10
56.27195633573751
 20
-806.2344946886758
 30
0.0
 42
0.34490170683451
  0
VERTEX
  5
1247
  8
LUO-LIGHT
 10
61.9143813993503
 20
-809.9957829635716
 30
0.0
  0
SEQEND
  5
13D8
  8
LUO-LIGHT
  0
POLYLINE
  5
E04
  8
LUO-LIGHT
 66
     1
 10
0.0
 20
0.0
 30
0.0
  0
VERTEX
  5
1248
  8
LUO-LIGHT
 10
51.96526466537159
 20
-771.1702669372478
 30
0.0
  0
VERTEX
  5
1249
  8
LUO-LIGHT
 10
54.03773408848537
 20
-798.5430998042358
 30
0.0
  0
SEQEND
  5
13D9
  8
LUO-LIGHT
  0
POLYLINE
  5
E05
  8
LUO-LIGHT
 66
     1
 10
0.0
 20
0.0
 30
0.0
  0
VERTEX
  5
124A
  8
LUO-LIGHT
 10
65.84694122926112
 20
-770.1091769663677
 30
0.0
  0
VERTEX
  5
124B
  8
LUO-LIGHT
 10
67.95225959441427
 20
-797.5294704044825
 30
0.0
  0
SEQEND
  5
13DA
  8
LUO-LIGHT
  0
POINT
  5
E06
  8
LUO-LIGHT
 10
-0.00000000000159
 20
-786.6666666666727
 30
0.0
  0
ENDBLK
  5
2A9
  8
0
  0
BLOCK
  8
0
  2
LUO-LIGHT_MOD-S120
 70
     0
 10
0.0
 20
0.0
 30
0.0
  3
LUO-LIGHT_MOD-S120
  1

  0
POLYLINE
  5
912
  8
LUO-LIGHT
 66
     1
 10
0.0
 20
0.0
 30
0.0
  0
VERTEX
  5
124C
  8
LUO-LIGHT
 10
0.0
 20
30.00000000002194
 30
0.0
  0
VERTEX
  5
124D
  8
LUO-LIGHT
 10
587.9999999999964
 20
29.99999999999648
 30
0.0
 42
-0.4142135623731
  0
VERTEX
  5
124E
  8
LUO-LIGHT
 10
589.9999999999955
 20
27.9999999999992
 30
0.0
  0
VERTEX
  5
124F
  8
LUO-LIGHT
 10
589.9999999999955
 20
-0.00000000000171
 30
0.0
  0
VERTEX
  5
1250
  8
LUO-LIGHT
 10
589.9999999999955
 20
-0.00000000000171
 30
0.0
  0
VERTEX
  5
1251
  8
LUO-LIGHT
 10
589.9999999999955
 20
0.00000000000102
 30
0.0
  0
SEQEND
  5
13DB
  8
LUO-LIGHT
  0
POLYLINE
  5
913
  8
LUO-LIGHT
 66
     1
 10
0.0
 20
0.0
 30
0.0
  0
VERTEX
  5
1252
  8
LUO-LIGHT
 10
535.7373599988696
 20
13.54999999999939
 30
0.0
  0
VERTEX
  5
1253
  8
LUO-LIGHT
 10
533.8393463898838
 20
21.22963583540343
 30
0.0
 42
0.34490170683451
  0
VERTEX
  5
1254
  8
LUO-LIGHT
 10
528.4999999999964
 20
25.41002220680105
 30
0.0
 42
0.34490170683458
  0
VERTEX
  5
1255
  8
LUO-LIGHT
 10
523.160653610108
 20
21.22963583540161
 30
0.0
  0
VERTEX
  5
1256
  8
LUO-LIGHT
 10
521.2626400011231
 20
13.54999999999939
 30
0.0
  0
SEQEND
  5
13DC
  8
LUO-LIGHT
  0
POLYLINE
  5
914
  8
LUO-LIGHT
 66
     1
 10
0.0
 20
0.0
 30
0.0
  0
VERTEX
  5
1257
  8
LUO-LIGHT
 10
579.0337156929927
 20
-0.00000000000261
 30
0.0
 42
0.4142135623731
  0
VERTEX
  5
1258
  8
LUO-LIGHT
 10
565.4837156929907
 20
13.54999999999939
 30
0.0
  0
VERTEX
  5
1259
  8
LUO-LIGHT
 10
26.79999999999382
 20
13.55000000000302
 30
0.0
 42
0.4142135623731
  0
VERTEX
  5
125A
  8
LUO-LIGHT
 10
13.24999999999091
 20
0.00000000000011
 30
0.0
  0
SEQEND
  5
13DD
  8
LUO-LIGHT
  0
POLYLINE
  5
915
  8
LUO-LIGHT
 66
     1
 10
0.0
 20
0.0
 30
0.0
  0
VERTEX
  5
125B
  8
LUO-LIGHT
 10
0.0
 20
-30.00000000002171
 30
0.0
  0
VERTEX
  5
125C
  8
LUO-LIGHT
 10
587.9999999999964
 20
-29.99999999999625
 30
0.0
 42
0.4142135623731
  0
VERTEX
  5
125D
  8
LUO-LIGHT
 10
589.9999999999955
 20
-27.99999999999898
 30
0.0
  0
VERTEX
  5
125E
  8
LUO-LIGHT
 10
589.9999999999955
 20
0.00000000000193
 30
0.0
  0
VERTEX
  5
125F
  8
LUO-LIGHT
 10
589.9999999999955
 20
0.00000000000193
 30
0.0
  0
VERTEX
  5
1260
  8
LUO-LIGHT
 10
589.9999999999955
 20
-0.0000000000008
 30
0.0
  0
SEQEND
  5
13DE
  8
LUO-LIGHT
  0
POLYLINE
  5
916
  8
LUO-LIGHT
 66
     1
 10
0.0
 20
0.0
 30
0.0
  0
VERTEX
  5
1261
  8
LUO-LIGHT
 10
535.7373599988696
 20
-13.54999999999916
 30
0.0
  0
VERTEX
  5
1262
  8
LUO-LIGHT
 10
533.8393463898838
 20
-21.2296358354032
 30
0.0
 42
-0.34490170683451
  0
VERTEX
  5
1263
  8
LUO-LIGHT
 10
528.4999999999964
 20
-25.41002220680082
 30
0.0
 42
-0.34490170683458
  0
VERTEX
  5
1264
  8
LUO-LIGHT
 10
523.160653610108
 20
-21.22963583540138
 30
0.0
  0
VERTEX
  5
1265
  8
LUO-LIGHT
 10
521.2626400011231
 20
-13.54999999999916
 30
0.0
  0
SEQEND
  5
13DF
  8
LUO-LIGHT
  0
POLYLINE
  5
917
  8
LUO-LIGHT
 66
     1
 10
0.0
 20
0.0
 30
0.0
  0
VERTEX
  5
1266
  8
LUO-LIGHT
 10
579.0337156929927
 20
0.00000000000284
 30
0.0
 42
-0.4142135623731
  0
VERTEX
  5
1267
  8
LUO-LIGHT
 10
565.4837156929907
 20
-13.54999999999916
 30
0.0
  0
VERTEX
  5
1268
  8
LUO-LIGHT
 10
26.79999999999382
 20
-13.5500000000028
 30
0.0
 42
-0.4142135623731
  0
VERTEX
  5
1269
  8
LUO-LIGHT
 10
13.24999999999091
 20
0.00000000000011
 30
0.0
  0
SEQEND
  5
13E0
  8
LUO-LIGHT
  0
POLYLINE
  5
918
  8
LUO-LIGHT
 66
     1
 10
0.0
 20
0.0
 30
0.0
  0
VERTEX
  5
126A
  8
LUO-LIGHT
 10
0.0
 20
30.00000000002194
 30
0.0
  0
VERTEX
  5
126B
  8
LUO-LIGHT
 10
-587.9999999999973
 20
29.99999999999648
 30
0.0
 42
0.4142135623731
  0
VERTEX
  5
126C
  8
LUO-LIGHT
 10
-589.9999999999964
 20
27.9999999999992
 30
0.0
  0
VERTEX
  5
126D
  8
LUO-LIGHT
 10
-589.9999999999964
 20
-0.00000000000171
 30
0.0
  0
VERTEX
  5
126E
  8
LUO-LIGHT
 10
-589.9999999999964
 20
-0.00000000000171
 30
0.0
  0
VERTEX
  5
126F
  8
LUO-LIGHT
 10
-589.9999999999964
 20
0.00000000000102
 30
0.0
  0
SEQEND
  5
13E1
  8
LUO-LIGHT
  0
POLYLINE
  5
919
  8
LUO-LIGHT
 66
     1
 10
0.0
 20
0.0
 30
0.0
  0
VERTEX
  5
1270
  8
LUO-LIGHT
 10
-535.7373599988705
 20
13.54999999999939
 30
0.0
  0
VERTEX
  5
1271
  8
LUO-LIGHT
 10
-533.8393463898847
 20
21.22963583540343
 30
0.0
 42
-0.34490170683451
  0
VERTEX
  5
1272
  8
LUO-LIGHT
 10
-528.4999999999973
 20
25.41002220680105
 30
0.0
 42
-0.34490170683458
  0
VERTEX
  5
1273
  8
LUO-LIGHT
 10
-523.160653610109
 20
21.22963583540161
 30
0.0
  0
VERTEX
  5
1274
  8
LUO-LIGHT
 10
-521.2626400011231
 20
13.54999999999939
 30
0.0
  0
SEQEND
  5
13E2
  8
LUO-LIGHT
  0
POLYLINE
  5
91A
  8
LUO-LIGHT
 66
     1
 10
0.0
 20
0.0
 30
0.0
  0
VERTEX
  5
1275
  8
LUO-LIGHT
 10
-579.0337156929936
 20
-0.00000000000261
 30
0.0
 42
-0.4142135623731
  0
VERTEX
  5
1276
  8
LUO-LIGHT
 10
-565.4837156929916
 20
13.54999999999939
 30
0.0
  0
VERTEX
  5
1277
  8
LUO-LIGHT
 10
-26.79999999999382
 20
13.55000000000302
 30
0.0
 42
-0.4142135623731
  0
VERTEX
  5
1278
  8
LUO-LIGHT
 10
-13.24999999999181
 20
0.00000000000011
 30
0.0
  0
SEQEND
  5
13E3
  8
LUO-LIGHT
  0
POLYLINE
  5
91B
  8
LUO-LIGHT
 66
     1
 10
0.0
 20
0.0
 30
0.0
  0
VERTEX
  5
1279
  8
LUO-LIGHT
 10
0.0
 20
-30.00000000002171
 30
0.0
  0
VERTEX
  5
127A
  8
LUO-LIGHT
 10
-587.9999999999973
 20
-29.99999999999625
 30
0.0
 42
-0.4142135623731
  0
VERTEX
  5
127B
  8
LUO-LIGHT
 10
-589.9999999999964
 20
-27.99999999999898
 30
0.0
  0
VERTEX
  5
127C
  8
LUO-LIGHT
 10
-589.9999999999964
 20
0.00000000000193
 30
0.0
  0
VERTEX
  5
127D
  8
LUO-LIGHT
 10
-589.9999999999964
 20
0.00000000000193
 30
0.0
  0
VERTEX
  5
127E
  8
LUO-LIGHT
 10
-589.9999999999964
 20
-0.0000000000008
 30
0.0
  0
SEQEND
  5
13E4
  8
LUO-LIGHT
  0
POLYLINE
  5
91C
  8
LUO-LIGHT
 66
     1
 10
0.0
 20
0.0
 30
0.0
  0
VERTEX
  5
127F
  8
LUO-LIGHT
 10
-535.7373599988705
 20
-13.54999999999916
 30
0.0
  0
VERTEX
  5
1280
  8
LUO-LIGHT
 10
-533.8393463898847
 20
-21.2296358354032
 30
0.0
 42
0.34490170683451
  0
VERTEX
  5
1281
  8
LUO-LIGHT
 10
-528.4999999999973
 20
-25.41002220680082
 30
0.0
 42
0.34490170683458
  0
VERTEX
  5
1282
  8
LUO-LIGHT
 10
-523.160653610109
 20
-21.22963583540138
 30
0.0
  0
VERTEX
  5
1283
  8
LUO-LIGHT
 10
-521.2626400011231
 20
-13.54999999999916
 30
0.0
  0
SEQEND
  5
13E5
  8
LUO-LIGHT
  0
POLYLINE
  5
91D
  8
LUO-LIGHT
 66
     1
 10
0.0
 20
0.0
 30
0.0
  0
VERTEX
  5
1284
  8
LUO-LIGHT
 10
-579.0337156929936
 20
0.00000000000284
 30
0.0
 42
0.4142135623731
  0
VERTEX
  5
1285
  8
LUO-LIGHT
 10
-565.4837156929916
 20
-13.54999999999916
 30
0.0
  0
VERTEX
  5
1286
  8
LUO-LIGHT
 10
-26.79999999999382
 20
-13.5500000000028
 30
0.0
 42
0.4142135623731
  0
VERTEX
  5
1287
  8
LUO-LIGHT
 10
-13.24999999999181
 20
0.00000000000011
 30
0.0
  0
SEQEND
  5
13E6
  8
LUO-LIGHT
  0
POLYLINE
  5
91E
  8
LUO-LIGHT
 66
     1
 10
0.0
 20
0.0
 30
0.0
  0
VERTEX
  5
1288
  8
LUO-LIGHT
 10
-389.633714750297
 20
-12.40000093132545
 30
0.0
  0
VERTEX
  5
1289
  8
LUO-LIGHT
 10
-202.8237153630441
 20
-12.40000093132545
 30
0.0
 42
1.00000000091723
  0
VERTEX
  5
128A
  8
LUO-LIGHT
 10
-202.8237153402969
 20
12.40000061137118
 30
0.0
  0
VERTEX
  5
128B
  8
LUO-LIGHT
 10
-389.633714750297
 20
12.40000095406771
 30
0.0
 42
1.00000000091723
  0
VERTEX
  5
128C
  8
LUO-LIGHT
 10
-389.6337147275498
 20
-12.40000093132545
 30
0.0
  0
SEQEND
  5
13E7
  8
LUO-LIGHT
  0
POLYLINE
  5
91F
  8
LUO-LIGHT
 66
     1
 10
0.0
 20
0.0
 30
0.0
  0
VERTEX
  5
128D
  8
LUO-LIGHT
 10
389.633714750297
 20
-12.40000093132545
 30
0.0
  0
VERTEX
  5
128E
  8
LUO-LIGHT
 10
202.8237153630441
 20
-12.40000093132545
 30
0.0
 42
-1.00000000091723
  0
VERTEX
  5
128F
  8
LUO-LIGHT
 10
202.823715340297
 20
12.40000061137118
 30
0.0
  0
VERTEX
  5
1290
  8
LUO-LIGHT
 10
389.633714750297
 20
12.40000095406771
 30
0.0
 42
-1.00000000091723
  0
VERTEX
  5
1291
  8
LUO-LIGHT
 10
389.6337147275498
 20
-12.40000093132545
 30
0.0
  0
SEQEND
  5
13E8
  8
LUO-LIGHT
  0
POLYLINE
  5
920
  8
LUO-LIGHT
 66
     1
 10
0.0
 20
0.0
 30
0.0
  0
VERTEX
  5
1292
  8
LUO-LIGHT
 10
-521.2626400011231
 20
13.54999999999939
 30
0.0
  0
VERTEX
  5
1293
  8
LUO-LIGHT
 10
-521.2626400011233
 20
-13.5499999999995
 30
0.0
  0
SEQEND
  5
13E9
  8
LUO-LIGHT
  0
POLYLINE
  5
921
  8
LUO-LIGHT
 66
     1
 10
0.0
 20
0.0
 30
0.0
  0
VERTEX
  5
1294
  8
LUO-LIGHT
 10
-535.7373599988705
 20
13.54999999999956
 30
0.0
  0
VERTEX
  5
1295
  8
LUO-LIGHT
 10
-535.7373599988705
 20
-13.54999999999939
 30
0.0
  0
SEQEND
  5
13EA
  8
LUO-LIGHT
  0
POLYLINE
  5
922
  8
LUO-LIGHT
 66
     1
 10
0.0
 20
0.0
 30
0.0
  0
VERTEX
  5
1296
  8
LUO-LIGHT
 10
535.7373599988703
 20
13.54999999999939
 30
0.0
  0
VERTEX
  5
1297
  8
LUO-LIGHT
 10
535.7373599988703
 20
-13.5499999999995
 30
0.0
  0
SEQEND
  5
13EB
  8
LUO-LIGHT
  0
POLYLINE
  5
923
  8
LUO-LIGHT
 66
     1
 10
0.0
 20
0.0
 30
0.0
  0
VERTEX
  5
1298
  8
LUO-LIGHT
 10
521.2626400011229
 20
13.54999999999956
 30
0.0
  0
VERTEX
  5
1299
  8
LUO-LIGHT
 10
521.2626400011229
 20
-13.54999999999939
 30
0.0
  0
SEQEND
  5
13EC
  8
LUO-LIGHT
  0
CIRCLE
  5
924
  8
LUO-LIGHT
 10
528.4999999999961
 20
-0.00000000000006
 30
0.0
 40
0.5
  0
CIRCLE
  5
925
  8
LUO-LIGHT
 10
-528.4999999999975
 20
-0.00000000000006
 30
0.0
 40
0.5
  0
ENDBLK
  5
2B9
  8
0
  0
BLOCK
  8
0
  2
LUO-LIGHT_MOD-SECTION
 70
     0
 10
0.0
 20
0.0
 30
0.0
  3
LUO-LIGHT_MOD-SECTION
  1

  0
LINE
  5
2BD
  8
LUO-LIGHT
 10
-16.00000000000045
 20
20.55000000005748
 30
0.0
 11
-16.00000000000045
 21
28.00000000005366
 31
0.0
  0
POLYLINE
  5
2BE
  8
LUO-LIGHT
 66
     1
 10
0.0
 20
0.0
 30
0.0
  0
VERTEX
  5
129A
  8
LUO-LIGHT
 10
-17.80000000000018
 20
14.45000000010077
 30
0.0
  0
VERTEX
  5
129B
  8
LUO-LIGHT
 10
-14.00000000000091
 20
14.45000000009986
 30
0.0
  0
SEQEND
  5
13ED
  8
LUO-LIGHT
  0
CIRCLE
  5
2BF
  8
LUO-LIGHT
 10
-9.00000000000045
 20
-17.50000000000637
 30
0.0
 40
2.65
  0
LINE
  5
2C0
  8
LUO-LIGHT
 10
-16.00000000000045
 20
-20.55000000005748
 30
0.0
 11
-16.00000000000045
 21
-28.00000000005366
 31
0.0
  0
LINE
  5
2C1
  8
LUO-LIGHT
 10
-14.00000000000091
 20
14.45000000009986
 30
0.0
 11
-14.00000000000091
 21
-14.45000000010168
 31
0.0
  0
POLYLINE
  5
2C2
  8
LUO-LIGHT
 66
     1
 10
0.0
 20
0.0
 30
0.0
  0
VERTEX
  5
129C
  8
LUO-LIGHT
 10
-17.80000000000018
 20
-14.45000000010123
 30
0.0
  0
VERTEX
  5
129D
  8
LUO-LIGHT
 10
-14.00000000000091
 20
-14.45000000010168
 30
0.0
  0
SEQEND
  5
13EE
  8
LUO-LIGHT
  0
POLYLINE
  5
2C3
  8
LUO-LIGHT
 66
     1
 10
0.0
 20
0.0
 30
0.0
  0
VERTEX
  5
129E
  8
LUO-LIGHT
 10
-16.00000000000045
 20
-20.55000000005748
 30
0.0
  0
VERTEX
  5
129F
  8
LUO-LIGHT
 10
-12.50000000000045
 20
-20.55000000005748
 30
0.0
  0
VERTEX
  5
12A0
  8
LUO-LIGHT
 10
-9.00000000000045
 20
-20.55000000005748
 30
0.0
 42
1.0
  0
VERTEX
  5
12A1
  8
LUO-LIGHT
 10
-9.00000000000045
 20
-14.45000000010168
 30
0.0
  0
VERTEX
  5
12A2
  8
LUO-LIGHT
 10
-12.50000000000045
 20
-14.45000000010123
 30
0.0
  0
VERTEX
  5
12A3
  8
LUO-LIGHT
 10
-14.00000000000091
 20
-14.45000000010123
 30
0.0
 42
1.0
  0
SEQEND
  5
13EF
  8
LUO-LIGHT
  0
CIRCLE
  5
2C4
  8
LUO-LIGHT
 10
-9.00000000000045
 20
17.50000000000409
 30
0.0
 40
2.65
  0
POLYLINE
  5
2C5
  8
LUO-LIGHT
 66
     1
 10
0.0
 20
0.0
 30
0.0
  0
VERTEX
  5
12A4
  8
LUO-LIGHT
 10
-16.00000000000045
 20
20.55000000005521
 30
0.0
  0
VERTEX
  5
12A5
  8
LUO-LIGHT
 10
-12.50000000000045
 20
20.55000000005521
 30
0.0
  0
VERTEX
  5
12A6
  8
LUO-LIGHT
 10
-9.00000000000045
 20
20.55000000005521
 30
0.0
 42
-1.0
  0
VERTEX
  5
12A7
  8
LUO-LIGHT
 10
-9.00000000000045
 20
14.45000000009941
 30
0.0
  0
VERTEX
  5
12A8
  8
LUO-LIGHT
 10
-12.50000000000045
 20
14.45000000009895
 30
0.0
  0
VERTEX
  5
12A9
  8
LUO-LIGHT
 10
-14.00000000000091
 20
14.45000000009941
 30
0.0
 42
-1.0
  0
SEQEND
  5
13F0
  8
LUO-LIGHT
  0
POLYLINE
  5
2C6
  8
LUO-LIGHT
 66
     1
 10
0.0
 20
0.0
 30
0.0
 70
     1
  0
VERTEX
  5
12AA
  8
LUO-LIGHT
 10
-25.80000000000018
 20
30.00000000005366
 30
0.0
  0
VERTEX
  5
12AB
  8
LUO-LIGHT
 10
-25.80000000000018
 20
-29.99999999994634
 30
0.0
  0
VERTEX
  5
12AC
  8
LUO-LIGHT
 10
-17.80000000000018
 20
-29.99999999994634
 30
0.0
  0
VERTEX
  5
12AD
  8
LUO-LIGHT
 10
-17.80000000000018
 20
30.00000000005366
 30
0.0
  0
SEQEND
  5
13F1
  8
LUO-LIGHT
  0
POLYLINE
  5
2C7
  8
LUO-LIGHT
 66
     1
 10
0.0
 20
0.0
 30
0.0
  0
VERTEX
  5
12AE
  8
LUO-LIGHT
 10
-17.80000000000018
 20
27.35000000004266
 30
0.0
  0
VERTEX
  5
12AF
  8
LUO-LIGHT
 10
-16.00000000000045
 20
27.35000000004266
 30
0.0
  0
VERTEX
  5
12B0
  8
LUO-LIGHT
 10
-16.00000000000045
 20
30.00000000005366
 30
0.0
  0
VERTEX
  5
12B1
  8
LUO-LIGHT
 10
-2.00000000000045
 20
30.00000000005366
 30
0.0
 42
-0.4142135623731
  0
VERTEX
  5
12B2
  8
LUO-LIGHT
 10
0.0
 20
28.00000000005184
 30
0.0
  0
VERTEX
  5
12B3
  8
LUO-LIGHT
 10
0.0
 20
0.0
 30
0.0
  0
SEQEND
  5
13F2
  8
LUO-LIGHT
  0
POLYLINE
  5
2C8
  8
LUO-LIGHT
 66
     1
 10
0.0
 20
0.0
 30
0.0
  0
VERTEX
  5
12B4
  8
LUO-LIGHT
 10
-17.80000000000018
 20
-27.35000000004266
 30
0.0
  0
VERTEX
  5
12B5
  8
LUO-LIGHT
 10
-16.00000000000045
 20
-27.35000000004266
 30
0.0
  0
VERTEX
  5
12B6
  8
LUO-LIGHT
 10
-16.00000000000045
 20
-30.00000000005366
 30
0.0
  0
VERTEX
  5
12B7
  8
LUO-LIGHT
 10
-2.00000000000045
 20
-30.00000000005366
 30
0.0
 42
0.4142135623731
  0
VERTEX
  5
12B8
  8
LUO-LIGHT
 10
0.0
 20
-28.00000000005184
 30
0.0
  0
VERTEX
  5
12B9
  8
LUO-LIGHT
 10
0.0
 20
0.0
 30
0.0
  0
SEQEND
  5
13F3
  8
LUO-LIGHT
  0
ENDBLK
  5
2C9
  8
0
  0
BLOCK
  8
0
  2
LUO-LIGHT_ADAPTER90W
 70
     0
 10
0.0
 20
0.0
 30
0.0
  3
LUO-LIGHT_ADAPTER90W
  1

  0
POLYLINE
  5
CD4
  8
LUO-LIGHT
 66
     1
 10
0.0
 20
0.0
 30
0.0
  0
VERTEX
  5
12BA
  8
LUO-LIGHT
 10
0.0
 20
30.0
 30
0.0
  0
VERTEX
  5
12BB
  8
LUO-LIGHT
 10
-194.500000000023
 20
30.0
 30
0.0
 42
0.41421356237312
  0
VERTEX
  5
12BC
  8
LUO-LIGHT
 10
-196.500000000023
 20
28.0
 30
0.0
  0
VERTEX
  5
12BD
  8
LUO-LIGHT
 10
-196.500000000023
 20
0.0
 30
0.0
  0
VERTEX
  5
12BE
  8
LUO-LIGHT
 10
-196.500000000023
 20
-28.0
 30
0.0
 42
0.41421356237312
  0
VERTEX
  5
12BF
  8
LUO-LIGHT
 10
-194.500000000023
 20
-30.0
 30
0.0
  0
VERTEX
  5
12C0
  8
LUO-LIGHT
 10
0.0
 20
-30.0
 30
0.0
  0
VERTEX
  5
12C1
  8
LUO-LIGHT
 10
194.500000000023
 20
-30.0
 30
0.0
 42
0.41421356237312
  0
VERTEX
  5
12C2
  8
LUO-LIGHT
 10
196.500000000023
 20
-28.0
 30
0.0
  0
VERTEX
  5
12C3
  8
LUO-LIGHT
 10
196.500000000023
 20
0.0
 30
0.0
  0
VERTEX
  5
12C4
  8
LUO-LIGHT
 10
196.500000000023
 20
28.0
 30
0.0
 42
0.41421356237312
  0
VERTEX
  5
12C5
  8
LUO-LIGHT
 10
194.500000000023
 20
30.0
 30
0.0
  0
VERTEX
  5
12C6
  8
LUO-LIGHT
 10
0.0
 20
30.0
 30
0.0
  0
SEQEND
  5
13F4
  8
LUO-LIGHT
  0
CIRCLE
  5
CD5
  8
LUO-LIGHT
 10
0.0
 20
20.90000000000009
 30
0.0
 40
1.7
1001
PE_URL
1000

  0
CIRCLE
  5
CD6
  8
LUO-LIGHT
 10
-176.3160779653597
 20
20.89999999999964
 30
0.0
 40
1.7
1001
PE_URL
1000

  0
POLYLINE
  5
CD7
  8
LUO-LIGHT
 66
     1
 10
0.0
 20
0.0
 30
0.0
1001
PE_URL
1000

  0
VERTEX
  5
12C7
  8
LUO-LIGHT
 10
24.00000000003547
 20
12.55000000000018
 30
0.0
  0
VERTEX
  5
12C8
  8
LUO-LIGHT
 10
56.00000000003547
 20
12.55000000000018
 30
0.0
 42
-0.414214
  0
VERTEX
  5
12C9
  8
LUO-LIGHT
 10
58.00000000003547
 20
10.55000000000018
 30
0.0
  0
VERTEX
  5
12CA
  8
LUO-LIGHT
 10
58.00000000003547
 20
-10.54999999999973
 30
0.0
 42
-0.414214
  0
VERTEX
  5
12CB
  8
LUO-LIGHT
 10
56.00000000003547
 20
-12.54999999999973
 30
0.0
  0
VERTEX
  5
12CC
  8
LUO-LIGHT
 10
24.00000000003547
 20
-12.54999999999973
 30
0.0
 42
-0.414214
  0
VERTEX
  5
12CD
  8
LUO-LIGHT
 10
22.00000000003547
 20
-10.54999999999973
 30
0.0
  0
VERTEX
  5
12CE
  8
LUO-LIGHT
 10
22.00000000003547
 20
10.55000000000018
 30
0.0
 42
-0.414214
  0
VERTEX
  5
12CF
  8
LUO-LIGHT
 10
24.00000000003547
 20
12.55000000000018
 30
0.0
  0
SEQEND
  5
13F5
  8
LUO-LIGHT
  0
CIRCLE
  5
CD8
  8
LUO-LIGHT
 10
0.0
 20
-20.90000000000009
 30
0.0
 40
1.7
1001
PE_URL
1000

  0
CIRCLE
  5
CD9
  8
LUO-LIGHT
 10
-176.3160779653597
 20
-20.89999999999964
 30
0.0
 40
1.7
1001
PE_URL
1000

  0
POLYLINE
  5
CDA
  8
LUO-LIGHT
 66
     1
 10
0.0
 20
0.0
 30
0.0
1001
PE_URL
1000

  0
VERTEX
  5
12D0
  8
LUO-LIGHT
 10
12.2538343669994
 20
24.30007565774827
 30
0.0
  0
VERTEX
  5
12D1
  8
LUO-LIGHT
 10
0.0
 20
24.30007565774827
 30
0.0
  0
SEQEND
  5
13F6
  8
LUO-LIGHT
  0
CIRCLE
  5
CDB
  8
LUO-LIGHT
 10
176.3160779653595
 20
20.89999999999964
 30
0.0
 40
1.7
1001
PE_URL
1000

  0
CIRCLE
  5
CDC
  8
LUO-LIGHT
 10
176.3160779653595
 20
-20.89999999999964
 30
0.0
 40
1.7
1001
PE_URL
1000

  0
POLYLINE
  5
CDD
  8
LUO-LIGHT
 66
     1
 10
0.0
 20
0.0
 30
0.0
1001
PE_URL
1000

  0
VERTEX
  5
12D2
  8
LUO-LIGHT
 10
-186.200000000023
 20
14.59303102115018
 30
0.0
  0
VERTEX
  5
12D3
  8
LUO-LIGHT
 10
-186.200000000023
 20
14.80007565774804
 30
0.0
 42
-0.4142135623731
  0
VERTEX
  5
12D4
  8
LUO-LIGHT
 10
-176.700000000023
 20
24.30007565774804
 30
0.0
  0
VERTEX
  5
12D5
  8
LUO-LIGHT
 10
-146.500000000023
 20
24.30007565774804
 30
0.0
 42
0.26957790184264
  0
VERTEX
  5
12D6
  8
LUO-LIGHT
 10
-138.2440499531328
 20
19.50000000003888
 30
0.0
  0
VERTEX
  5
12D7
  8
LUO-LIGHT
 10
-48.9259540720177
 20
19.50000000003865
 30
0.0
 42
0.26957790184266
  0
VERTEX
  5
12D8
  8
LUO-LIGHT
 10
-40.67000402512758
 20
24.30007565774827
 30
0.0
  0
VERTEX
  5
12D9
  8
LUO-LIGHT
 10
0.0
 20
24.30007565774804
 30
0.0
  0
VERTEX
  5
12DA
  8
LUO-LIGHT
 10
12.2538343669994
 20
24.30007565774827
 30
0.0
  0
VERTEX
  5
12DB
  8
LUO-LIGHT
 10
12.2538343669994
 20
18.0
 30
0.0
 42
1.0
  0
VERTEX
  5
12DC
  8
LUO-LIGHT
 10
19.2538343669994
 20
18.0
 30
0.0
  0
VERTEX
  5
12DD
  8
LUO-LIGHT
 10
19.2538343669994
 20
24.30007565774804
 30
0.0
  0
VERTEX
  5
12DE
  8
LUO-LIGHT
 10
40.67000402512713
 20
24.30007565774804
 30
0.0
 42
0.26957790184266
  0
VERTEX
  5
12DF
  8
LUO-LIGHT
 10
48.9259540720177
 20
19.50000000003843
 30
0.0
  0
VERTEX
  5
12E0
  8
LUO-LIGHT
 10
138.2440499531326
 20
19.50000000003843
 30
0.0
 42
0.26957790184264
  0
VERTEX
  5
12E1
  8
LUO-LIGHT
 10
146.5000000000227
 20
24.30007565774758
 30
0.0
  0
VERTEX
  5
12E2
  8
LUO-LIGHT
 10
176.7000000000226
 20
24.30007565774758
 30
0.0
 42
-0.4142135623731
  0
VERTEX
  5
12E3
  8
LUO-LIGHT
 10
186.2000000000226
 20
14.80007565774758
 30
0.0
  0
VERTEX
  5
12E4
  8
LUO-LIGHT
 10
186.2000000000226
 20
14.58402927397356
 30
0.0
  0
VERTEX
  5
12E5
  8
LUO-LIGHT
 10
166.1926275748633
 20
14.58402927397356
 30
0.0
 42
0.41460242972214
  0
VERTEX
  5
12E6
  8
LUO-LIGHT
 10
151.6279456677566
 20
-0.00000000000045
 30
0.0
 42
0.41382480192173
  0
VERTEX
  5
12E7
  8
LUO-LIGHT
 10
166.1926275748638
 20
-14.54536020671503
 30
0.0
  0
VERTEX
  5
12E8
  8
LUO-LIGHT
 10
166.2000000000226
 20
-14.54536020671503
 30
0.0
  0
VERTEX
  5
12E9
  8
LUO-LIGHT
 10
186.2000000000226
 20
-14.54536020671503
 30
0.0
  0
VERTEX
  5
12EA
  8
LUO-LIGHT
 10
186.2000000000226
 20
-14.76140659048906
 30
0.0
 42
-0.4142135623731
  0
VERTEX
  5
12EB
  8
LUO-LIGHT
 10
176.7000000000226
 20
-24.26140659048906
 30
0.0
  0
VERTEX
  5
12EC
  8
LUO-LIGHT
 10
146.5000000000227
 20
-24.26140659048906
 30
0.0
 42
0.26957790184264
  0
VERTEX
  5
12ED
  8
LUO-LIGHT
 10
138.2440499531326
 20
-19.4613309327799
 30
0.0
  0
VERTEX
  5
12EE
  8
LUO-LIGHT
 10
48.9259540720177
 20
-19.46133093277967
 30
0.0
 42
0.26957790184266
  0
VERTEX
  5
12EF
  8
LUO-LIGHT
 10
40.67000402512713
 20
-24.26140659048929
 30
0.0
  0
VERTEX
  5
12F0
  8
LUO-LIGHT
 10
0.0
 20
-24.26140659048929
 30
0.0
  0
VERTEX
  5
12F1
  8
LUO-LIGHT
 10
-40.67000402512758
 20
-24.26140659048929
 30
0.0
 42
0.26957790184266
  0
VERTEX
  5
12F2
  8
LUO-LIGHT
 10
-48.9259540720177
 20
-19.46133093277967
 30
0.0
  0
VERTEX
  5
12F3
  8
LUO-LIGHT
 10
-138.2440499531328
 20
-19.4613309327799
 30
0.0
 42
0.26957790184264
  0
VERTEX
  5
12F4
  8
LUO-LIGHT
 10
-146.500000000023
 20
-24.26140659048906
 30
0.0
  0
VERTEX
  5
12F5
  8
LUO-LIGHT
 10
-176.700000000023
 20
-24.26140659048906
 30
0.0
 42
-0.4142135623731
  0
VERTEX
  5
12F6
  8
LUO-LIGHT
 10
-186.200000000023
 20
-14.76140659048906
 30
0.0
  0
VERTEX
  5
12F7
  8
LUO-LIGHT
 10
-186.200000000023
 20
-14.54536020671503
 30
0.0
  0
VERTEX
  5
12F8
  8
LUO-LIGHT
 10
-166.1926275748647
 20
-14.54536020671503
 30
0.0
 42
1.0
  0
VERTEX
  5
12F9
  8
LUO-LIGHT
 10
-166.1926275748647
 20
14.58402927397401
 30
0.0
  0
VERTEX
  5
12FA
  8
LUO-LIGHT
 10
-186.200000000023
 20
14.58402927397401
 30
0.0
  0
SEQEND
  5
13F7
  8
LUO-LIGHT
  0
ENDBLK
  5
2D3
  8
0
  0
BLOCK
  8
0
  2
LUO-LIGHT_ADAPTER90W-SECTI
 70
     0
 10
0.0
 20
0.0
 30
0.0
  3
LUO-LIGHT_ADAPTER90W-SECTI
  1

  0
LINE
  5
CE9
  8
LUO-LIGHT
 10
-195.500000000023
 20
-21.00000000000028
 30
0.0
 11
195.5000000000246
 21
-21.00000000000023
 31
0.0
  0
POLYLINE
  5
CEA
  8
LUO-LIGHT
 66
     1
 10
0.0
 20
0.0
 30
0.0
  0
VERTEX
  5
12FB
  8
LUO-LIGHT
 10
7.23735999887367
 20
-5.0
 30
0.0
  0
VERTEX
  5
12FC
  8
LUO-LIGHT
 10
7.23735999887367
 20
0.0
 30
0.0
  0
VERTEX
  5
12FD
  8
LUO-LIGHT
 10
-7.23735999887367
 20
0.0
 30
0.0
  0
VERTEX
  5
12FE
  8
LUO-LIGHT
 10
-7.23735999887367
 20
-5.00000000000011
 30
0.0
  0
SEQEND
  5
13F8
  8
LUO-LIGHT
  0
POLYLINE
  5
CEB
  8
LUO-LIGHT
 66
     1
 10
0.0
 20
0.0
 30
0.0
  0
VERTEX
  5
12FF
  8
LUO-LIGHT
 10
0.0
 20
0.0
 30
0.0
  0
VERTEX
  5
1300
  8
LUO-LIGHT
 10
0.0
 20
40.327537020156
 30
0.0
  0
SEQEND
  5
13F9
  8
LUO-LIGHT
  0
POLYLINE
  5
CEC
  8
LUO-LIGHT
 66
     1
 10
0.0
 20
0.0
 30
0.0
  0
VERTEX
  5
1301
  8
LUO-LIGHT
 10
-197.5000000000232
 20
-30.79999999999995
 30
0.0
  0
VERTEX
  5
1302
  8
LUO-LIGHT
 10
-197.5000000000232
 20
-30.79999999999995
 30
0.0
  0
VERTEX
  5
1303
  8
LUO-LIGHT
 10
-197.5000000000232
 20
-22.79999999999995
 30
0.0
  0
SEQEND
  5
13FA
  8
LUO-LIGHT
  0
LINE
  5
CED
  8
LUO-LIGHT
 10
197.5000000000232
 20
-30.79999999999995
 30
0.0
 11
197.5000000000232
 21
-30.79999999999995
 31
0.0
  0
LINE
  5
CEE
  8
LUO-LIGHT
 10
197.5000000000232
 20
-30.79999999999995
 30
0.0
 11
197.5000000000232
 21
-22.79999999999995
 31
0.0
  0
LINE
  5
CEF
  8
LUO-LIGHT
 10
-195.500000000023
 20
-22.80000000000001
 30
0.0
 11
197.5000000000246
 21
-22.79999999999995
 31
0.0
  0
LINE
  5
CF0
  8
LUO-LIGHT
 10
197.5000000000246
 20
-22.79999999999995
 30
0.0
 11
197.5000000000246
 21
-30.79999999999995
 31
0.0
  0
LINE
  5
CF1
  8
LUO-LIGHT
 10
197.5000000000246
 20
-30.79999999999995
 30
0.0
 11
-195.500000000023
 21
-30.80000000000001
 31
0.0
  0
LINE
  5
CF2
  8
LUO-LIGHT
 10
194.8500000000136
 20
-22.79999999999995
 30
0.0
 11
194.8500000000136
 21
-21.00000000000023
 31
0.0
  0
LINE
  5
CF3
  8
LUO-LIGHT
 10
194.8500000000136
 20
-21.00000000000023
 30
0.0
 11
197.5000000000246
 21
-21.00000000000023
 31
0.0
  0
LINE
  5
CF4
  8
LUO-LIGHT
 10
197.5000000000246
 20
-21.00000000000023
 30
0.0
 11
197.5000000000246
 21
-7.00000000000023
 31
0.0
  0
ARC
  5
CF5
  8
LUO-LIGHT
 10
195.5000000000234
 20
-7.00000000000085
 30
0.0
 40
2.00000000000112
 50
0.0
 51
90.00000000001954
  0
LINE
  5
CF6
  8
LUO-LIGHT
 10
195.5000000000227
 20
-4.99999999999977
 30
0.0
 11
-195.500000000023
 21
-4.99999999999977
 31
0.0
  0
LINE
  5
CF7
  8
LUO-LIGHT
 10
-197.5000000000232
 20
-30.79999999999995
 30
0.0
 11
-197.5000000000232
 21
-30.79999999999995
 31
0.0
  0
LINE
  5
CF8
  8
LUO-LIGHT
 10
-197.5000000000232
 20
-30.79999999999995
 30
0.0
 11
-197.5000000000232
 21
-22.79999999999995
 31
0.0
  0
LINE
  5
CF9
  8
LUO-LIGHT
 10
-197.5000000000246
 20
-22.79999999999995
 30
0.0
 11
-197.5000000000246
 21
-30.79999999999995
 31
0.0
  0
LINE
  5
CFA
  8
LUO-LIGHT
 10
-194.8500000000136
 20
-22.79999999999995
 30
0.0
 11
-194.8500000000136
 21
-21.00000000000023
 31
0.0
  0
LINE
  5
CFB
  8
LUO-LIGHT
 10
-194.8500000000136
 20
-21.00000000000023
 30
0.0
 11
-197.5000000000246
 21
-21.00000000000023
 31
0.0
  0
LINE
  5
CFC
  8
LUO-LIGHT
 10
-197.5000000000246
 20
-21.00000000000023
 30
0.0
 11
-197.5000000000246
 21
-7.00000000000023
 31
0.0
  0
ARC
  5
CFD
  8
LUO-LIGHT
 10
-195.5000000000234
 20
-7.00000000000085
 30
0.0
 40
2.00000000000112
 50
89.99999999998046
 51
180.0
  0
POLYLINE
  5
CFE
  8
LUO-LIGHT
 66
     1
 10
0.0
 20
0.0
 30
0.0
  0
VERTEX
  5
1304
  8
LUO-LIGHT
 10
-30.12092824122919
 20
-21.00000000000028
 30
0.0
  0
VERTEX
  5
1305
  8
LUO-LIGHT
 10
-30.12092824122919
 20
-22.80000000000001
 30
0.0
  0
SEQEND
  5
13FB
  8
LUO-LIGHT
  0
POLYLINE
  5
CFF
  8
LUO-LIGHT
 66
     1
 10
0.0
 20
0.0
 30
0.0
  0
VERTEX
  5
1306
  8
LUO-LIGHT
 10
-151.8548640090089
 20
-21.00000000000028
 30
0.0
  0
VERTEX
  5
1307
  8
LUO-LIGHT
 10
-151.8548640090089
 20
-22.80000000000001
 30
0.0
  0
SEQEND
  5
13FC
  8
LUO-LIGHT
  0
POLYLINE
  5
D00
  8
LUO-LIGHT
 66
     1
 10
0.0
 20
0.0
 30
0.0
  0
VERTEX
  5
1308
  8
LUO-LIGHT
 10
30.12092824122919
 20
-21.00000000000028
 30
0.0
  0
VERTEX
  5
1309
  8
LUO-LIGHT
 10
30.12092824122919
 20
-22.80000000000001
 30
0.0
  0
SEQEND
  5
13FD
  8
LUO-LIGHT
  0
POLYLINE
  5
D01
  8
LUO-LIGHT
 66
     1
 10
0.0
 20
0.0
 30
0.0
  0
VERTEX
  5
130A
  8
LUO-LIGHT
 10
151.8548640090089
 20
-21.00000000000028
 30
0.0
  0
VERTEX
  5
130B
  8
LUO-LIGHT
 10
151.8548640090089
 20
-22.80000000000001
 30
0.0
  0
SEQEND
  5
13FE
  8
LUO-LIGHT
  0
INSERT
  5
D02
  8
LUO-LIGHT
  2
*U38
 10
0.0
 20
0.0
 30
0.0
1001
ACAD
1002
{
1000
R14_HATCH_DATA
1000
D02
1011
1.0
1021
0.0
1031
0.0
1021
0.0
1031
0.0
1011
0.0
1021
1.0
1031
0.0
1021
1.0
1031
0.0
1011
0.0
1021
0.0
1031
1.0
1021
0.0
1031
1.0
1040
0.0
1010
0.0
1020
0.0
1030
1.0
1000
SOLID
1070
     1
1070
     1
1071
        2
1071
        7
1070
     1
1070
     1
1071
        4
1040
151.8548640090089
1040
-22.80000000000001
1040
0.0
1040
151.8548640090089
1040
-21.00000000000023
1040
0.0
1040
30.12092824122919
1040
-21.00000000000028
1040
0.0
1040
30.12092824122919
1040
-22.79999999999995
1040
0.0
1071
        0
1071
        7
1070
     1
1070
     1
1071
        4
1040
-30.12092824122919
1040
-22.80000000000001
1040
0.0
1040
-30.12092824122919
1040
-21.00000000000028
1040
0.0
1040
-151.8548640090089
1040
-21.00000000000028
1040
0.0
1040
-151.8548640090089
1040
-22.80000000000001
1040
0.0
1071
        0
1070
     0
1070
     1
1040
0.0
1071
        2
1040
91.2805975174424
1040
-21.60769957641151
1040
0.0
1040
-77.97898549842239
1040
-21.24833740440329
1040
0.0
1002
}
  0
ENDBLK
  5
2DF
  8
0
  0
BLOCK
  8
0
  2
LUO-LIGHT_MOD-S120-SECTION
 70
     0
 10
0.0
 20
0.0
 30
0.0
  3
LUO-LIGHT_MOD-S120-SECTION
  1

  0
INSERT
  5
955
  8
LUO-LIGHT
  2
LUO-LIGHT_MOD-SECTION
 10
-5.00000000000023
 20
0.0
 30
0.0
  0
POLYLINE
  5
956
  8
LUO-LIGHT
 66
     1
 10
0.0
 20
0.0
 30
0.0
  0
VERTEX
  5
1311
  8
LUO-LIGHT
 10
-5.00000000000023
 20
13.55000000004628
 30
0.0
  0
VERTEX
  5
1312
  8
LUO-LIGHT
 10
0.0
 20
13.55000000004628
 30
0.0
  0
VERTEX
  5
1313
  8
LUO-LIGHT
 10
-0.00000000000023
 20
-13.54999999995272
 30
0.0
  0
VERTEX
  5
1314
  8
LUO-LIGHT
 10
-5.00000000000023
 20
-13.54999999995272
 30
0.0
  0
SEQEND
  5
13FF
  8
LUO-LIGHT
  0
POLYLINE
  5
957
  8
LUO-LIGHT
 66
     1
 10
0.0
 20
0.0
 30
0.0
  0
VERTEX
  5
1315
  8
LUO-LIGHT
 10
0.0
 20
0.0
 30
0.0
  0
VERTEX
  5
1316
  8
LUO-LIGHT
 10
40.32753702015611
 20
0.0
 30
0.0
  0
SEQEND
  5
1400
  8
LUO-LIGHT
  0
ENDBLK
  5
325
  8
0
  0
BLOCK
  8
0
  2
LUO-LIGHT_MOD-D85-SIDE
 70
     0
 10
0.0
 20
0.0
 30
0.0
  3
LUO-LIGHT_MOD-D85-SIDE
  1

  0
LINE
  5
C8E
  8
LUO-LIGHT
 10
169.5739318111021
 20
-21.00000000000023
 30
0.0
 11
-251.7545636413447
 21
-21.00000000000023
 31
0.0
  0
POLYLINE
  5
C8F
  8
LUO-LIGHT
 66
     1
 10
0.0
 20
0.0
 30
0.0
  0
VERTEX
  5
1317
  8
LUO-LIGHT
 10
169.5739318111022
 20
-22.79999999999995
 30
0.0
  0
VERTEX
  5
1318
  8
LUO-LIGHT
 10
-253.7545636413446
 20
-22.79999999999995
 30
0.0
  0
VERTEX
  5
1319
  8
LUO-LIGHT
 10
-253.7545636413446
 20
-30.79999999999973
 30
0.0
  0
VERTEX
  5
131A
  8
LUO-LIGHT
 10
169.5739318111024
 20
-30.79999999999973
 30
0.0
  0
SEQEND
  5
1401
  8
LUO-LIGHT
  0
POLYLINE
  5
C90
  8
LUO-LIGHT
 66
     1
 10
0.0
 20
0.0
 30
0.0
  0
VERTEX
  5
131B
  8
LUO-LIGHT
 10
-251.1045636413337
 20
-22.79999999999995
 30
0.0
  0
VERTEX
  5
131C
  8
LUO-LIGHT
 10
-251.1045636413337
 20
-21.00000000000023
 30
0.0
  0
VERTEX
  5
131D
  8
LUO-LIGHT
 10
-253.7545636413447
 20
-21.00000000000023
 30
0.0
  0
VERTEX
  5
131E
  8
LUO-LIGHT
 10
-253.7545636413447
 20
-7.00000000000023
 30
0.0
 42
-0.4142135623731
  0
VERTEX
  5
131F
  8
LUO-LIGHT
 10
-251.7545636413429
 20
-4.99999999999977
 30
0.0
  0
VERTEX
  5
1320
  8
LUO-LIGHT
 10
-42.0903159151211
 20
-4.99999999999977
 30
0.0
  0
SEQEND
  5
1402
  8
LUO-LIGHT
  0
POLYLINE
  5
C91
  8
LUO-LIGHT
 66
     1
 10
0.0
 20
0.0
 30
0.0
  0
VERTEX
  5
1321
  8
LUO-LIGHT
 10
-7.23735999887356
 20
-5.0
 30
0.0
  0
VERTEX
  5
1322
  8
LUO-LIGHT
 10
-7.23735999887356
 20
0.0
 30
0.0
  0
VERTEX
  5
1323
  8
LUO-LIGHT
 10
38.94436872965599
 20
0.0
 30
0.0
  0
VERTEX
  5
1324
  8
LUO-LIGHT
 10
38.94436872965599
 20
-5.0
 30
0.0
  0
SEQEND
  5
1403
  8
LUO-LIGHT
  0
POLYLINE
  5
C92
  8
LUO-LIGHT
 66
     1
 10
0.0
 20
0.0
 30
0.0
  0
VERTEX
  5
1325
  8
LUO-LIGHT
 10
0.0
 20
0.0
 30
0.0
  0
VERTEX
  5
1326
  8
LUO-LIGHT
 10
0.0
 20
74.1130993878503
 30
0.0
  0
SEQEND
  5
1404
  8
LUO-LIGHT
  0
POLYLINE
  5
C93
  8
LUO-LIGHT
 66
     1
 10
0.0
 20
0.0
 30
0.0
  0
VERTEX
  5
1327
  8
LUO-LIGHT
 10
-140.7809312408722
 20
-2.99999999999977
 30
0.0
  0
VERTEX
  5
1328
  8
LUO-LIGHT
 10
-44.65096488528107
 20
-2.99999999999977
 30
0.0
  0
SEQEND
  5
1405
  8
LUO-LIGHT
  0
POLYLINE
  5
C94
  8
LUO-LIGHT
 66
     1
 10
0.0
 20
0.0
 30
0.0
 70
     1
  0
VERTEX
  5
1329
  8
LUO-LIGHT
 10
-140.7809312408722
 20
-2.99999999999977
 30
0.0
  0
VERTEX
  5
132A
  8
LUO-LIGHT
 10
-44.65096488528107
 20
-2.99999999999977
 30
0.0
  0
VERTEX
  5
132B
  8
LUO-LIGHT
 10
-44.65096488528107
 20
-4.99999999999977
 30
0.0
  0
VERTEX
  5
132C
  8
LUO-LIGHT
 10
-140.7809312408722
 20
-4.99999999999977
 30
0.0
  0
SEQEND
  5
1406
  8
LUO-LIGHT
  0
POLYLINE
  5
C95
  8
LUO-LIGHT
 66
     1
 10
0.0
 20
0.0
 30
0.0
  0
VERTEX
  5
132D
  8
LUO-LIGHT
 10
74.45209101299287
 20
-2.99999999999977
 30
0.0
  0
VERTEX
  5
132E
  8
LUO-LIGHT
 10
131.4936485421791
 20
-2.99999999999977
 30
0.0
  0
SEQEND
  5
1407
  8
LUO-LIGHT
  0
POLYLINE
  5
C96
  8
LUO-LIGHT
 66
     1
 10
0.0
 20
0.0
 30
0.0
 70
     1
  0
VERTEX
  5
132F
  8
LUO-LIGHT
 10
74.45209101299287
 20
-2.99999999999977
 30
0.0
  0
VERTEX
  5
1330
  8
LUO-LIGHT
 10
131.4936485421791
 20
-2.99999999999977
 30
0.0
  0
VERTEX
  5
1331
  8
LUO-LIGHT
 10
131.4936485421791
 20
-4.99999999999977
 30
0.0
  0
VERTEX
  5
1332
  8
LUO-LIGHT
 10
74.45209101299287
 20
-4.99999999999977
 30
0.0
  0
SEQEND
  5
1408
  8
LUO-LIGHT
  0
POLYLINE
  5
C97
  8
LUO-LIGHT
 66
     1
 10
0.0
 20
0.0
 30
0.0
  0
VERTEX
  5
1333
  8
LUO-LIGHT
 10
166.9239318110915
 20
-22.79999999999995
 30
0.0
  0
VERTEX
  5
1334
  8
LUO-LIGHT
 10
166.9239318110915
 20
-21.00000000000023
 30
0.0
  0
VERTEX
  5
1335
  8
LUO-LIGHT
 10
169.5739318111025
 20
-21.00000000000023
 30
0.0
  0
VERTEX
  5
1336
  8
LUO-LIGHT
 10
169.5739318111025
 20
-7.00000000000023
 30
0.0
 42
0.4142135623731
  0
VERTEX
  5
1337
  8
LUO-LIGHT
 10
167.5739318111007
 20
-4.99999999999977
 30
0.0
  0
VERTEX
  5
1338
  8
LUO-LIGHT
 10
-42.0903159151211
 20
-4.99999999999977
 30
0.0
  0
SEQEND
  5
1409
  8
LUO-LIGHT
  0
LINE
  5
C98
  8
LUO-LIGHT
 10
38.94436872965599
 20
0.0
 30
0.0
 11
38.94436872965599
 21
-4.99999999999977
 31
0.0
  0
LINE
  5
C99
  8
LUO-LIGHT
 10
29.16325937397255
 20
0.0
 30
0.0
 11
29.16325937397255
 21
-4.99999999999977
 31
0.0
  0
LINE
  5
C9A
  8
LUO-LIGHT
 10
9.73563157292313
 20
0.0
 30
0.0
 11
9.73563157292313
 21
-4.99999999999977
 31
0.0
  0
LINE
  5
C9B
  8
LUO-LIGHT
 10
-196.4568484115808
 20
0.0
 30
0.0
 11
-196.4568484115808
 21
-4.99999999999977
 31
0.0
  0
POLYLINE
  5
C9C
  8
LUO-LIGHT
 66
     1
 10
0.0
 20
0.0
 30
0.0
  0
VERTEX
  5
1339
  8
LUO-LIGHT
 10
-200.6015167886333
 20
-5.0
 30
0.0
  0
VERTEX
  5
133A
  8
LUO-LIGHT
 10
-200.6015167886333
 20
0.0
 30
0.0
  0
VERTEX
  5
133B
  8
LUO-LIGHT
 10
-188.4493343063214
 20
0.0
 30
0.0
  0
VERTEX
  5
133C
  8
LUO-LIGHT
 10
-188.4493343063214
 20
-5.0
 30
0.0
  0
SEQEND
  5
140A
  8
LUO-LIGHT
  0
LINE
  5
C9D
  8
LUO-LIGHT
 10
148.0569070686429
 20
0.0
 30
0.0
 11
148.0569070686429
 21
-4.99999999999977
 31
0.0
  0
POLYLINE
  5
C9E
  8
LUO-LIGHT
 66
     1
 10
0.0
 20
0.0
 30
0.0
  0
VERTEX
  5
133D
  8
LUO-LIGHT
 10
120.8695908128332
 20
-2.99999999999955
 30
0.0
  0
VERTEX
  5
133E
  8
LUO-LIGHT
 10
120.8695908128332
 20
0.00000000000023
 30
0.0
  0
VERTEX
  5
133F
  8
LUO-LIGHT
 10
149.2766107251846
 20
0.00000000000023
 30
0.0
  0
VERTEX
  5
1340
  8
LUO-LIGHT
 10
149.2766107251846
 20
-5.0
 30
0.0
  0
SEQEND
  5
140B
  8
LUO-LIGHT
  0
POLYLINE
  5
C9F
  8
LUO-LIGHT
 66
     1
 10
0.0
 20
0.0
 30
0.0
  0
VERTEX
  5
1341
  8
LUO-LIGHT
 10
169.5739318111024
 20
-30.79999999999973
 30
0.0
  0
VERTEX
  5
1342
  8
LUO-LIGHT
 10
169.5739318111024
 20
-22.79999999999995
 30
0.0
  0
SEQEND
  5
140C
  8
LUO-LIGHT
  0
ENDBLK
  5
828
  8
0
  0
BLOCK
  8
0
  2
LUO-LIGHT_MOD-D163-SIDE
 70
     0
 10
0.0
 20
0.0
 30
0.0
  3
LUO-LIGHT_MOD-D163-SIDE
  1

  0
LINE
  5
CA1
  8
LUO-LIGHT
 10
285.0051072058113
 20
-21.00000000000023
 30
0.0
 11
-531.6590984379993
 21
-21.00000000000023
 31
0.0
  0
POLYLINE
  5
CA2
  8
LUO-LIGHT
 66
     1
 10
0.0
 20
0.0
 30
0.0
  0
VERTEX
  5
1343
  8
LUO-LIGHT
 10
285.0051072058113
 20
-22.79999999999995
 30
0.0
  0
VERTEX
  5
1344
  8
LUO-LIGHT
 10
-533.6590984379992
 20
-22.79999999999995
 30
0.0
  0
VERTEX
  5
1345
  8
LUO-LIGHT
 10
-533.6590984379992
 20
-30.79999999999973
 30
0.0
  0
VERTEX
  5
1346
  8
LUO-LIGHT
 10
285.0051072058118
 20
-30.79999999999973
 30
0.0
  0
SEQEND
  5
140D
  8
LUO-LIGHT
  0
POLYLINE
  5
CA3
  8
LUO-LIGHT
 66
     1
 10
0.0
 20
0.0
 30
0.0
  0
VERTEX
  5
1347
  8
LUO-LIGHT
 10
-531.0090984379883
 20
-22.79999999999995
 30
0.0
  0
VERTEX
  5
1348
  8
LUO-LIGHT
 10
-531.0090984379883
 20
-21.00000000000023
 30
0.0
  0
VERTEX
  5
1349
  8
LUO-LIGHT
 10
-533.6590984379993
 20
-21.00000000000023
 30
0.0
  0
VERTEX
  5
134A
  8
LUO-LIGHT
 10
-533.6590984379993
 20
-7.00000000000023
 30
0.0
 42
-0.4142135623731
  0
VERTEX
  5
134B
  8
LUO-LIGHT
 10
-531.6590984379975
 20
-4.99999999999977
 30
0.0
  0
VERTEX
  5
134C
  8
LUO-LIGHT
 10
-135.7651161345019
 20
-5.00000000000023
 30
0.0
  0
SEQEND
  5
140E
  8
LUO-LIGHT
  0
POLYLINE
  5
CA4
  8
LUO-LIGHT
 66
     1
 10
0.0
 20
0.0
 30
0.0
  0
VERTEX
  5
134D
  8
LUO-LIGHT
 10
-7.23735999887356
 20
-5.0
 30
0.0
  0
VERTEX
  5
134E
  8
LUO-LIGHT
 10
-7.23735999887356
 20
0.0
 30
0.0
  0
VERTEX
  5
134F
  8
LUO-LIGHT
 10
38.94436872965593
 20
0.0
 30
0.0
  0
VERTEX
  5
1350
  8
LUO-LIGHT
 10
38.94436872965593
 20
-5.0
 30
0.0
  0
SEQEND
  5
140F
  8
LUO-LIGHT
  0
POLYLINE
  5
CA5
  8
LUO-LIGHT
 66
     1
 10
0.0
 20
0.0
 30
0.0
  0
VERTEX
  5
1351
  8
LUO-LIGHT
 10
0.0
 20
0.0
 30
0.0
  0
VERTEX
  5
1352
  8
LUO-LIGHT
 10
0.0
 20
38.23378315503055
 30
0.0
  0
SEQEND
  5
1410
  8
LUO-LIGHT
  0
POLYLINE
  5
CA6
  8
LUO-LIGHT
 66
     1
 10
0.0
 20
0.0
 30
0.0
  0
VERTEX
  5
1353
  8
LUO-LIGHT
 10
-336.370197300679
 20
-2.99999999999977
 30
0.0
  0
VERTEX
  5
1354
  8
LUO-LIGHT
 10
-138.3257651046619
 20
-3.00000000000023
 30
0.0
  0
SEQEND
  5
1411
  8
LUO-LIGHT
  0
POLYLINE
  5
CA7
  8
LUO-LIGHT
 66
     1
 10
0.0
 20
0.0
 30
0.0
 70
     1
  0
VERTEX
  5
1355
  8
LUO-LIGHT
 10
-336.370197300679
 20
-2.99999999999977
 30
0.0
  0
VERTEX
  5
1356
  8
LUO-LIGHT
 10
-138.3257651046619
 20
-3.00000000000023
 30
0.0
  0
VERTEX
  5
1357
  8
LUO-LIGHT
 10
-138.3257651046619
 20
-5.00000000000023
 30
0.0
  0
VERTEX
  5
1358
  8
LUO-LIGHT
 10
-336.370197300679
 20
-4.99999999999977
 30
0.0
  0
SEQEND
  5
1412
  8
LUO-LIGHT
  0
POLYLINE
  5
CA8
  8
LUO-LIGHT
 66
     1
 10
0.0
 20
0.0
 30
0.0
  0
VERTEX
  5
1359
  8
LUO-LIGHT
 10
282.3551072058008
 20
-22.79999999999995
 30
0.0
  0
VERTEX
  5
135A
  8
LUO-LIGHT
 10
282.3551072058008
 20
-21.00000000000023
 30
0.0
  0
VERTEX
  5
135B
  8
LUO-LIGHT
 10
285.0051072058118
 20
-21.00000000000023
 30
0.0
  0
VERTEX
  5
135C
  8
LUO-LIGHT
 10
285.0051072058118
 20
-7.00000000000023
 30
0.0
 42
0.4142135623731
  0
VERTEX
  5
135D
  8
LUO-LIGHT
 10
283.00510720581
 20
-4.99999999999977
 30
0.0
  0
VERTEX
  5
135E
  8
LUO-LIGHT
 10
-135.7651161345019
 20
-5.00000000000023
 30
0.0
  0
SEQEND
  5
1413
  8
LUO-LIGHT
  0
POLYLINE
  5
CA9
  8
LUO-LIGHT
 66
     1
 10
0.0
 20
0.0
 30
0.0
  0
VERTEX
  5
135F
  8
LUO-LIGHT
 10
285.0051072058113
 20
-22.79999999999995
 30
0.0
  0
VERTEX
  5
1360
  8
LUO-LIGHT
 10
285.0051072058113
 20
-30.79999999999973
 30
0.0
  0
SEQEND
  5
1414
  8
LUO-LIGHT
  0
LINE
  5
CAA
  8
LUO-LIGHT
 10
38.94436872965593
 20
0.0
 30
0.0
 11
38.94436872965593
 21
-4.99999999999977
 31
0.0
  0
LINE
  5
CAB
  8
LUO-LIGHT
 10
29.16325937397255
 20
0.0
 30
0.0
 11
29.16325937397255
 21
-4.99999999999977
 31
0.0
  0
LINE
  5
CAC
  8
LUO-LIGHT
 10
9.73563157292313
 20
0.0
 30
0.0
 11
9.73563157292313
 21
-4.99999999999977
 31
0.0
  0
LINE
  5
CAD
  8
LUO-LIGHT
 10
-476.3613832082354
 20
0.0
 30
0.0
 11
-476.3613832082354
 21
-4.99999999999977
 31
0.0
  0
POLYLINE
  5
CAE
  8
LUO-LIGHT
 66
     1
 10
0.0
 20
0.0
 30
0.0
  0
VERTEX
  5
1361
  8
LUO-LIGHT
 10
-480.5060515852879
 20
-5.0
 30
0.0
  0
VERTEX
  5
1362
  8
LUO-LIGHT
 10
-480.5060515852879
 20
0.0
 30
0.0
  0
VERTEX
  5
1363
  8
LUO-LIGHT
 10
-468.353869102976
 20
0.0
 30
0.0
  0
VERTEX
  5
1364
  8
LUO-LIGHT
 10
-468.353869102976
 20
-5.0
 30
0.0
  0
SEQEND
  5
1415
  8
LUO-LIGHT
  0
POLYLINE
  5
CAF
  8
LUO-LIGHT
 66
     1
 10
0.0
 20
0.0
 30
0.0
  0
VERTEX
  5
1365
  8
LUO-LIGHT
 10
144.2844296824594
 20
-2.99999999999977
 30
0.0
  0
VERTEX
  5
1366
  8
LUO-LIGHT
 10
239.4933180935659
 20
-3.00000000000023
 30
0.0
  0
SEQEND
  5
1416
  8
LUO-LIGHT
  0
POLYLINE
  5
CB0
  8
LUO-LIGHT
 66
     1
 10
0.0
 20
0.0
 30
0.0
 70
     1
  0
VERTEX
  5
1367
  8
LUO-LIGHT
 10
144.2844296824594
 20
-2.99999999999977
 30
0.0
  0
VERTEX
  5
1368
  8
LUO-LIGHT
 10
239.4933180935659
 20
-3.00000000000023
 30
0.0
  0
VERTEX
  5
1369
  8
LUO-LIGHT
 10
239.4933180935659
 20
-5.00000000000023
 30
0.0
  0
VERTEX
  5
136A
  8
LUO-LIGHT
 10
144.2844296824594
 20
-4.99999999999977
 30
0.0
  0
SEQEND
  5
1417
  8
LUO-LIGHT
  0
ENDBLK
  5
8C4
  8
0
  0
BLOCK
  8
0
  2
LUO-LIGHT_MOD-S120-SIDE
 70
     0
 10
0.0
 20
0.0
 30
0.0
  3
LUO-LIGHT_MOD-S120-SIDE
  1

  0
LINE
  5
95A
  8
LUO-LIGHT
 10
-0.00000000000011
 20
-21.00000000000028
 30
0.0
 11
-587.9999999999965
 21
-21.00000000000028
 31
0.0
  0
POLYLINE
  5
95B
  8
LUO-LIGHT
 66
     1
 10
0.0
 20
0.0
 30
0.0
  0
VERTEX
  5
136B
  8
LUO-LIGHT
 10
0.0
 20
-22.80000000000001
 30
0.0
  0
VERTEX
  5
136C
  8
LUO-LIGHT
 10
-589.9999999999964
 20
-22.80000000000001
 30
0.0
  0
VERTEX
  5
136D
  8
LUO-LIGHT
 10
-589.9999999999964
 20
-30.80000000000001
 30
0.0
  0
VERTEX
  5
136E
  8
LUO-LIGHT
 10
0.0
 20
-30.80000000000001
 30
0.0
  0
SEQEND
  5
1418
  8
LUO-LIGHT
  0
POLYLINE
  5
95C
  8
LUO-LIGHT
 66
     1
 10
0.0
 20
0.0
 30
0.0
  0
VERTEX
  5
136F
  8
LUO-LIGHT
 10
-587.3499999999855
 20
-22.79999999999995
 30
0.0
  0
VERTEX
  5
1370
  8
LUO-LIGHT
 10
-587.3499999999855
 20
-21.00000000000023
 30
0.0
  0
VERTEX
  5
1371
  8
LUO-LIGHT
 10
-589.9999999999965
 20
-21.00000000000023
 30
0.0
  0
VERTEX
  5
1372
  8
LUO-LIGHT
 10
-589.9999999999965
 20
-7.00000000000023
 30
0.0
 42
-0.4142135623731
  0
VERTEX
  5
1373
  8
LUO-LIGHT
 10
-587.9999999999947
 20
-4.99999999999977
 30
0.0
  0
VERTEX
  5
1374
  8
LUO-LIGHT
 10
0.0
 20
-4.99999999999977
 30
0.0
  0
SEQEND
  5
1419
  8
LUO-LIGHT
  0
POLYLINE
  5
95D
  8
LUO-LIGHT
 66
     1
 10
0.0
 20
0.0
 30
0.0
  0
VERTEX
  5
1375
  8
LUO-LIGHT
 10
589.9999999999951
 20
-30.80000000000001
 30
0.0
  0
VERTEX
  5
1376
  8
LUO-LIGHT
 10
589.9999999999951
 20
-30.80000000000001
 30
0.0
  0
VERTEX
  5
1377
  8
LUO-LIGHT
 10
589.9999999999951
 20
-22.80000000000001
 30
0.0
  0
SEQEND
  5
141A
  8
LUO-LIGHT
  0
LINE
  5
95E
  8
LUO-LIGHT
 10
0.00000000000011
 20
-21.00000000000028
 30
0.0
 11
587.9999999999965
 21
-21.00000000000028
 31
0.0
  0
POLYLINE
  5
95F
  8
LUO-LIGHT
 66
     1
 10
0.0
 20
0.0
 30
0.0
  0
VERTEX
  5
1378
  8
LUO-LIGHT
 10
0.0
 20
-22.80000000000001
 30
0.0
  0
VERTEX
  5
1379
  8
LUO-LIGHT
 10
589.9999999999965
 20
-22.80000000000001
 30
0.0
  0
VERTEX
  5
137A
  8
LUO-LIGHT
 10
589.9999999999965
 20
-30.80000000000001
 30
0.0
  0
VERTEX
  5
137B
  8
LUO-LIGHT
 10
0.0
 20
-30.80000000000001
 30
0.0
  0
SEQEND
  5
141B
  8
LUO-LIGHT
  0
POLYLINE
  5
960
  8
LUO-LIGHT
 66
     1
 10
0.0
 20
0.0
 30
0.0
  0
VERTEX
  5
137C
  8
LUO-LIGHT
 10
587.3499999999855
 20
-22.79999999999995
 30
0.0
  0
VERTEX
  5
137D
  8
LUO-LIGHT
 10
587.3499999999855
 20
-21.00000000000023
 30
0.0
  0
VERTEX
  5
137E
  8
LUO-LIGHT
 10
589.9999999999965
 20
-21.00000000000023
 30
0.0
  0
VERTEX
  5
137F
  8
LUO-LIGHT
 10
589.9999999999965
 20
-7.00000000000023
 30
0.0
 42
0.4142135623731
  0
VERTEX
  5
1380
  8
LUO-LIGHT
 10
587.9999999999947
 20
-4.99999999999977
 30
0.0
  0
VERTEX
  5
1381
  8
LUO-LIGHT
 10
0.0
 20
-4.99999999999977
 30
0.0
  0
SEQEND
  5
141C
  8
LUO-LIGHT
  0
POLYLINE
  5
961
  8
LUO-LIGHT
 66
     1
 10
0.0
 20
0.0
 30
0.0
  0
VERTEX
  5
1382
  8
LUO-LIGHT
 10
-535.7373599988705
 20
-5.0
 30
0.0
  0
VERTEX
  5
1383
  8
LUO-LIGHT
 10
-535.7373599988705
 20
0.0
 30
0.0
  0
VERTEX
  5
1384
  8
LUO-LIGHT
 10
-521.2626400011234
 20
0.0
 30
0.0
  0
VERTEX
  5
1385
  8
LUO-LIGHT
 10
-521.2626400011234
 20
-5.00000000000011
 30
0.0
  0
SEQEND
  5
141D
  8
LUO-LIGHT
  0
POLYLINE
  5
962
  8
LUO-LIGHT
 66
     1
 10
0.0
 20
0.0
 30
0.0
  0
VERTEX
  5
1386
  8
LUO-LIGHT
 10
-528.4999999999969
 20
0.0
 30
0.0
  0
VERTEX
  5
1387
  8
LUO-LIGHT
 10
-528.4999999999969
 20
40.32753702015597
 30
0.0
  0
SEQEND
  5
141E
  8
LUO-LIGHT
  0
POLYLINE
  5
963
  8
LUO-LIGHT
 66
     1
 10
0.0
 20
0.0
 30
0.0
  0
VERTEX
  5
1388
  8
LUO-LIGHT
 10
535.7373599988706
 20
-5.0
 30
0.0
  0
VERTEX
  5
1389
  8
LUO-LIGHT
 10
535.7373599988706
 20
0.0
 30
0.0
  0
VERTEX
  5
138A
  8
LUO-LIGHT
 10
521.2626400011233
 20
0.0
 30
0.0
  0
VERTEX
  5
138B
  8
LUO-LIGHT
 10
521.2626400011233
 20
-5.00000000000011
 30
0.0
  0
SEQEND
  5
141F
  8
LUO-LIGHT
  0
POLYLINE
  5
964
  8
LUO-LIGHT
 66
     1
 10
0.0
 20
0.0
 30
0.0
  0
VERTEX
  5
138C
  8
LUO-LIGHT
 10
528.4999999999969
 20
0.0
 30
0.0
  0
VERTEX
  5
138D
  8
LUO-LIGHT
 10
528.4999999999969
 20
40.32753702015597
 30
0.0
  0
SEQEND
  5
1420
  8
LUO-LIGHT
  0
POLYLINE
  5
965
  8
LUO-LIGHT
 66
     1
 10
0.0
 20
0.0
 30
0.0
  0
VERTEX
  5
138E
  8
LUO-LIGHT
 10
-402.0337156929937
 20
-2.99999999999977
 30
0.0
  0
VERTEX
  5
138F
  8
LUO-LIGHT
 10
-190.4237145689486
 20
-2.99999999999977
 30
0.0
  0
SEQEND
  5
1421
  8
LUO-LIGHT
  0
POLYLINE
  5
966
  8
LUO-LIGHT
 66
     1
 10
0.0
 20
0.0
 30
0.0
 70
     1
  0
VERTEX
  5
1390
  8
LUO-LIGHT
 10
-402.0337156929937
 20
-2.99999999999977
 30
0.0
  0
VERTEX
  5
1391
  8
LUO-LIGHT
 10
-190.4237145689486
 20
-2.99999999999977
 30
0.0
  0
VERTEX
  5
1392
  8
LUO-LIGHT
 10
-190.4237145689486
 20
-4.99999999999974
 30
0.0
  0
VERTEX
  5
1393
  8
LUO-LIGHT
 10
-402.0337156929937
 20
-4.99999999999974
 30
0.0
  0
SEQEND
  5
1422
  8
LUO-LIGHT
  0
POLYLINE
  5
967
  8
LUO-LIGHT
 66
     1
 10
0.0
 20
0.0
 30
0.0
  0
VERTEX
  5
1394
  8
LUO-LIGHT
 10
190.4237145689485
 20
-3.0000001566948
 30
0.0
  0
VERTEX
  5
1395
  8
LUO-LIGHT
 10
402.0337156929937
 20
-3.0000001566948
 30
0.0
  0
SEQEND
  5
1423
  8
LUO-LIGHT
  0
POLYLINE
  5
968
  8
LUO-LIGHT
 66
     1
 10
0.0
 20
0.0
 30
0.0
 70
     1
  0
VERTEX
  5
1396
  8
LUO-LIGHT
 10
190.4237145689485
 20
-3.0000001566948
 30
0.0
  0
VERTEX
  5
1397
  8
LUO-LIGHT
 10
402.0337156929937
 20
-3.0000001566948
 30
0.0
  0
VERTEX
  5
1398
  8
LUO-LIGHT
 10
402.0337156929937
 20
-5.00000015669477
 30
0.0
  0
VERTEX
  5
1399
  8
LUO-LIGHT
 10
190.4237145689485
 20
-5.00000015669477
 30
0.0
  0
SEQEND
  5
1424
  8
LUO-LIGHT
  0
ENDBLK
  5
96B
  8
0
  0
BLOCK
  8
0
  2
*D24
 70
     1
 10
0.0
 20
0.0
 30
0.0
  3
*D24
  1

  0
LINE
  5
B32
  8
0
 62
     0
 10
1235.986564524192
 20
449.4320224803034
 30
0.0
 11
1235.986564524192
 21
489.0209607890284
 31
0.0
  0
LINE
  5
B33
  8
0
 62
     0
 10
1629.319897857528
 20
449.4320224803054
 30
0.0
 11
1629.319897857528
 21
489.0209607890285
 31
0.0
  0
LINE
  5
B34
  8
0
 62
     0
 10
1263.986564524192
 20
487.7709607890284
 30
0.0
 11
1601.319897857528
 21
487.7709607890285
 31
0.0
  0
SOLID
  5
B35
  8
0
 62
     0
 10
1263.986564524192
 20
492.4376274556951
 30
0.0
 11
1263.986564524192
 21
483.1042941223618
 31
0.0
 12
1235.986564524192
 22
487.7709607890284
 32
0.0
 13
1235.986564524192
 23
487.7709607890284
 33
0.0
  0
SOLID
  5
B36
  8
0
 62
     0
 10
1601.319897857528
 20
483.1042941223618
 30
0.0
 11
1601.319897857528
 21
492.4376274556952
 31
0.0
 12
1629.319897857528
 22
487.7709607890285
 32
0.0
 13
1629.319897857528
 23
487.7709607890285
 33
0.0
  0
TEXT
  5
B37
  8
0
  6
CONTINUOUS
 62
     0
 10
1400.11723119086
 20
499.2469607890284
 30
0.0
 40
28.0
  1
393
  0
POINT
  5
B38
  8
DEFPOINTS
 62
     0
 10
1235.986564524192
 20
429.4320224803034
 30
0.0
  0
POINT
  5
B39
  8
DEFPOINTS
 62
     0
 10
1629.319897857528
 20
429.4320224803054
 30
0.0
  0
POINT
  5
B3A
  8
DEFPOINTS
 62
     0
 10
1629.319897857528
 20
487.7709607890285
 30
0.0
  0
ENDBLK
  5
B31
  8
0
  0
BLOCK
  8
0
  2
_DOT
 70
     0
 10
0.0
 20
0.0
 30
0.0
  3
_DOT
  1

  0
POLYLINE
  5
CD0
  8
0
  6
BYBLOCK
 62
     0
 66
     1
 10
0.0
 20
0.0
 30
0.0
 70
     1
 40
0.5
 41
0.5
  0
VERTEX
  5
139A
  8
0
  6
BYBLOCK
 62
     0
 10
-0.25
 20
0.0
 30
0.0
 42
1.0
  0
VERTEX
  5
139B
  8
0
  6
BYBLOCK
 62
     0
 10
0.25
 20
0.0
 30
0.0
 42
1.0
  0
SEQEND
  5
1425
  8
0
  6
BYBLOCK
 62
     0
  0
LINE
  5
CD1
  8
0
  6
BYBLOCK
 62
     0
 10
-0.5
 20
0.0
 30
0.0
 11
-1.0
 21
0.0
 31
0.0
  0
ENDBLK
  5
CCF
  8
0
  0
BLOCK
  8
0
  2
*X34
 70
     1
 10
0.0
 20
0.0
 30
0.0
  3
*X34
  1

  0
TEXT
  5
118E
  8
DIMENSIONS
  6
CONTINUOUS
 10
21.27696411510612
 20
53.16214566617492
 30
0.0
 40
18.9776
  1
Adaptive luminaire system
  0
TEXT
  5
118F
  8
DIMENSIONS
  6
CONTINUOUS
 10
19.53102491510612
 20
21.21019313284159
 30
0.0
 40
18.9776
  1
made from bamboo 2D-drawings
  0
ENDBLK
  5
139D
  8
0
  0
BLOCK
  8
0
  2
*X35
 70
     1
 10
0.0
 20
0.0
 30
0.0
  3
*X35
  1

  0
TEXT
  5
1191
  8
DIMENSIONS
  6
CONTINUOUS
 10
474.5736857076623
 20
110.5431747211989
 30
-0.00000000000001
 40
12.6519
  1
VERS:
  0
TEXT
  5
1192
  8
DIMENSIONS
  6
CONTINUOUS
 10
474.4851224076623
 20
89.24159242119887
 30
-0.00000000000001
 40
12.6519
  1
final
  0
ENDBLK
  5
139F
  8
0
  0
BLOCK
  8
0
  2
*X36
 70
     1
 10
0.0
 20
0.0
 30
0.0
  3
*X36
  1

  0
TEXT
  5
1194
  8
DIMENSIONS
  6
CONTINUOUS
 10
19.98648051510612
 20
133.20255970632
 30
0.0
 40
12.6518
  1
LUO-light.com
  0
TEXT
  5
1195
  8
DIMENSIONS
  6
CONTINUOUS
 10
20.10034671510612
 20
111.9011457729866
 30
0.0
 40
12.6518
  1
info@luo-light.com
  0
TEXT
  5
1196
  8
DIMENSIONS
  6
CONTINUOUS
 10
20.85945471510612
 20
90.7642052396533
 30
0.0
 40
12.6518
  1
Tel +358 503789468
  0
ENDBLK
  5
13A1
  8
0
  0
BLOCK
  8
0
  2
*X37
 70
     1
 10
0.0
 20
0.0
 30
0.0
  3
*X37
  1

  0
TEXT
  5
119C
  8
DIMENSIONS
  6
CONTINUOUS
 62
     1
 10
614.4572212634606
 20
129.9943960628125
 30
0.0
 40
25.0
  1
Please, copy-paste the LUO-light
  0
TEXT
  5
119D
  8
DIMENSIONS
  6
CONTINUOUS
 62
     1
 10
614.8822212634607
 20
87.90272939614579
 30
0.0
 40
25.0
  1
blocks straight into your AutoCAD drawing
  0
ENDBLK
  5
13A3
  8
0
  0
BLOCK
  8
0
  2
*U38
 70
     1
 10
0.0
 20
0.0
 30
0.0
  3
*U38
  1

  0
SOLID
  5
130D
  8
LUO-LIGHT
  6
CONTINUOUS
 10
-151.8548640090089
 20
-22.80000000000001
 30
0.0
 11
-151.8548640090089
 21
-21.00000000000028
 31
0.0
 12
-30.12092824122919
 22
-22.80000000000001
 32
0.0
 13
-30.12092824122919
 23
-22.80000000000001
 33
0.0
1001
ACAD
1010
0.0
1020
0.0
1030
0.0
  0
SOLID
  5
130E
  8
LUO-LIGHT
  6
CONTINUOUS
 10
-30.12092824122919
 20
-22.80000000000001
 30
0.0
 11
-151.8548640090089
 21
-21.00000000000028
 31
0.0
 12
-30.12092824122919
 22
-21.00000000000028
 32
0.0
 13
-30.12092824122919
 23
-21.00000000000028
 33
0.0
1001
ACAD
1010
0.0
1020
0.0
1030
0.0
  0
SOLID
  5
130F
  8
LUO-LIGHT
  6
CONTINUOUS
 10
30.12092824122919
 20
-22.79999999999995
 30
0.0
 11
30.12092824122919
 21
-21.00000000000028
 31
0.0
 12
151.8548640090089
 22
-22.80000000000001
 32
0.0
 13
151.8548640090089
 23
-22.80000000000001
 33
0.0
1001
ACAD
1010
0.0
1020
0.0
1030
0.0
  0
SOLID
  5
1310
  8
LUO-LIGHT
  6
CONTINUOUS
 10
151.8548640090089
 20
-22.80000000000001
 30
0.0
 11
30.12092824122919
 21
-21.00000000000028
 31
0.0
 12
151.8548640090089
 22
-21.00000000000023
 32
0.0
 13
151.8548640090089
 23
-21.00000000000023
 33
0.0
1001
ACAD
1010
0.0
1020
0.0
1030
0.0
  0
ENDBLK
  5
13A5
  8
0
  0
ENDSEC
  0
SECTION
  2
ENTITIES
  0
POLYLINE
  5
1D3
  8
0
  6
DASHED2
 62
     7
 66
     1
 10
0.0
 20
0.0
 30
0.0
  0
VERTEX
  5
1181
  8
0
  6
DASHED2
 62
     7
 10
7.95589606165481
 20
541.0281889447167
 30
0.0
  0
VERTEX
  5
1182
  8
0
  6
DASHED2
 62
     7
 10
1187.955896061661
 20
541.0281889447131
 30
0.0
  0
SEQEND
  5
13A6
  8
0
  6
DASHED2
 62
     7
  0
DIMENSION
  5
1D5
  8
0
 62
     7
  2
*D1
 10
1187.955896061663
 20
1466.068542347957
 30
0.0
 11
794.6225627283263
 21
1491.362542347957
 31
0.0
 70
    32
  1
787
  3
ISO-25
 13
401.2892293949897
 23
1407.72960403923
 33
0.0
 14
1187.955896061663
 24
1407.729604039233
 34
0.0
 50
-180.0
 52
270.0
1001
ACAD
1000
DSTYLE
1002
{
1070
   287
1070
     2
1070
    41
1040
28.0
1070
   289
1070
     2
1070
    42
1040
20.0
1070
   147
1040
11.0
1070
   140
1040
28.0
1002
}
1001
PE_URL
1000

  0
DIMENSION
  5
1E5
  8
0
 62
     7
  2
*D2
 10
7.95589606165481
 20
1511.165412919484
 30
0.0
 11
597.9558960616614
 21
1536.459412919484
 31
0.0
 70
    32
  3
ISO-25
 13
1187.955896061668
 23
1472.158721430131
 33
0.0
 14
7.95589606165481
 24
1472.783721430131
 34
0.0
 50
-0.00000000000001
1001
ACAD
1000
DSTYLE
1002
{
1070
   287
1070
     2
1070
   140
1040
28.0
1070
   147
1040
11.0
1070
    42
1040
20.0
1070
   289
1070
     2
1070
    41
1040
28.0
1002
}
  0
LINE
  5
1F3
  8
0
  6
DASHED2
 62
     7
 10
794.6225627283277
 20
1327.694855611387
 30
0.0
 11
794.622562728325
 21
541.0281889447144
 31
0.0
  0
DIMENSION
  5
1F4
  8
0
 62
     7
  2
*D3
 10
401.2892293949897
 20
1466.068542347954
 30
0.0
 11
204.6225627283218
 21
1491.362542347954
 31
0.0
 70
    32
  1
393
  3
ISO-25
 13
7.9558960616539
 23
1407.729604039228
 33
0.0
 14
401.2892293949897
 24
1407.72960403923
 34
0.0
 50
-180.0
 52
270.0
1001
ACAD
1000
DSTYLE
1002
{
1070
   287
1070
     2
1070
    41
1040
28.0
1070
   289
1070
     2
1070
    42
1040
20.0
1070
   147
1040
11.0
1070
   140
1040
28.0
1002
}
1001
PE_URL
1000

  0
LINE
  5
201
  8
0
  6
DASHED2
 62
     7
 10
401.2892293949915
 20
1327.694855611388
 30
0.0
 11
401.2892293949888
 21
541.0281889447158
 31
0.0
  0
LINE
  5
202
  8
0
  6
DASHED2
 62
     7
 10
1187.955896061664
 20
1327.694855611385
 30
0.0
 11
1187.955896061661
 21
541.0281889447131
 31
0.0
  0
LINE
  5
21C
  8
0
  6
DASHED2
 62
     7
 10
7.95589606165527
 20
1327.694855611389
 30
0.0
 11
7.95589606165254
 21
541.028188944717
 31
0.0
  0
POLYLINE
  5
21D
  8
0
  6
DASHED2
 62
     7
 66
     1
 10
0.0
 20
0.0
 30
0.0
  0
VERTEX
  5
1183
  8
0
  6
DASHED2
 62
     7
 10
7.95589606165754
 20
1327.692394588526
 30
0.0
  0
VERTEX
  5
1184
  8
0
  6
DASHED2
 62
     7
 10
1187.955896061664
 20
1327.692394588523
 30
0.0
  0
SEQEND
  5
13A7
  8
0
  6
DASHED2
 62
     7
  0
DIMENSION
  5
21E
  8
0
 62
     7
  2
*D6
 10
1771.405583491258
 20
357.7458136590777
 30
0.0
 11
1746.111583491258
 21
270.6838136590778
 31
0.0
 70
    32
  3
ISO-25
 13
1760.055136026016
 23
417.7458136591851
 33
0.0
 14
1760.055136026014
 24
357.7458136590777
 34
0.0
 50
-90.00000000000001
1001
ACAD
1000
DSTYLE
1002
{
1070
   287
1070
     2
1070
    41
1040
28.0
1070
   289
1070
     2
1070
    42
1040
20.0
1070
   147
1040
11.0
1070
   140
1040
28.0
1002
}
1001
PE_URL
1000

  0
DIMENSION
  5
22D
  8
0
 62
     7
  2
*D7
 10
1721.540504237889
 20
487.7709607890284
 30
0.0
 11
1808.812504237889
 21
513.0649607890284
 31
0.0
 70
    32
  3
ISO-25
 13
1695.540504237889
 23
432.4368771841224
 33
0.0
 14
1721.540504237889
 24
431.9599283938084
 34
0.0
 50
-0.00000000000001
1001
ACAD
1000
DSTYLE
1002
{
1070
   287
1070
     2
1070
    41
1040
28.0
1070
   289
1070
     2
1070
    42
1040
20.0
1070
   147
1040
11.0
1070
   140
1040
28.0
1002
}
1001
PE_URL
1000

  0
TEXT
  5
2E6
  8
LUO-LIGHT
  6
CONTINUOUS
 10
6.71999999999992
 20
449.7172486283655
 30
0.0
 40
28.0
  1
MOD-D85
1001
ACAD
1000
DSTYLE
1002
{
1070
   140
1040
28.0
1070
   147
1040
20.0
1070
    42
1040
20.0
1070
    41
1040
28.0
1002
}
  0
TEXT
  5
2E7
  8
LUO-LIGHT
  6
CONTINUOUS
 10
389.2873333333361
 20
449.7172486283642
 30
0.0
 40
28.0
  1
MOD-D163
1001
ACAD
1000
DSTYLE
1002
{
1070
   140
1040
28.0
1070
   147
1040
20.0
1070
    42
1040
20.0
1070
    41
1040
28.0
1002
}
  0
TEXT
  5
2E8
  8
LUO-LIGHT
  6
CONTINUOUS
 10
-2.99600000000009
 20
227.0875757698892
 30
0.0
 40
28.0
  1
MOD-S118
1001
ACAD
1000
DSTYLE
1002
{
1070
   140
1040
28.0
1070
   147
1040
20.0
1070
    42
1040
20.0
1070
    41
1040
28.0
1002
}
1001
PE_URL
1000

  0
INSERT
  5
926
  8
LUO-LIGHT
  2
LUO-LIGHT_MOD-S120
 10
597.9558960616648
 20
387.7458136591782
 30
0.0
  0
INSERT
  5
958
  8
LUO-LIGHT
  2
LUO-LIGHT_MOD-S120-SECTION
 10
1726.540504237889
 20
387.7458136591314
 30
0.0
  0
INSERT
  5
969
  8
LUO-LIGHT
  2
LUO-LIGHT_MOD-S120-SIDE
 10
597.9558960616649
 20
300.9527118228029
 30
0.0
  0
TEXT
  5
B22
  8
LUO-LIGHT
  6
CONTINUOUS
 10
1235.116046674256
 20
226.6139514716711
 30
0.0
 40
28.0
  1
ADAPTER 100 W
1001
ACAD
1000
DSTYLE
1002
{
1070
   140
1040
28.0
1070
   147
1040
20.0
1070
    42
1040
20.0
1070
    41
1040
28.0
1002
}
1001
PE_URL
1000

  0
DIMENSION
  5
B2E
  8
0
 62
     7
  2
*D24
 10
1629.319897857528
 20
487.7709607890285
 30
0.0
 11
1432.65323119086
 21
513.0649607890284
 31
0.0
 70
    32
  1
393
  3
ISO-25
 13
1235.986564524192
 23
429.4320224803034
 33
0.0
 14
1629.319897857528
 24
429.4320224803054
 34
0.0
 50
-180.0
 52
270.0
1001
ACAD
1000
DSTYLE
1002
{
1070
   287
1070
     2
1070
    41
1040
28.0
1070
   289
1070
     2
1070
    42
1040
20.0
1070
   147
1040
11.0
1070
   140
1040
28.0
1002
}
1001
PE_URL
1000

  0
LINE
  5
BFB
  8
0
 62
     7
 10
186.48548765361
 20
581.6211832053137
 30
0.0
 11
7.95582757552506
 21
934.3471461239203
 31
0.0
1001
ACAD_DSTYLE_DIMRADIAL_EXTE
1070
   387
1070
     1
1070
   388
1040
5.49778714378212
1070
   390
1040
6.27843845391007
1001
ACAD
1000
DSTYLE
1002
{
1070
    41
1040
28.0
1070
   289
1070
     2
1070
    42
1040
20.0
1070
   147
1040
11.0
1070
   140
1040
28.0
1002
}
1001
PE_URL
1000

  0
TEXT
  5
BFC
  8
0
  6
CONTINUOUS
 62
     7
 10
99.34831375992508
 20
779.1927737497767
 30
0.0
 40
28.0
  1
423
 50
296.8459179915363
1001
ACAD_DSTYLE_DIMRADIAL_EXTE
1070
   387
1070
     1
1070
   388
1040
5.49778714378212
1070
   390
1040
6.27843845391007
1001
ACAD
1000
DSTYLE
1002
{
1070
    41
1040
28.0
1070
   289
1070
     2
1070
    42
1040
20.0
1070
   147
1040
11.0
1070
   140
1040
28.0
1002
}
1001
PE_URL
1000

  0
INSERT
  5
CA0
  8
LUO-LIGHT
  2
LUO-LIGHT_MOD-D85-SIDE
 10
261.7104597030138
 20
1358.492394588526
 30
0.0
  0
INSERT
  5
CB1
  8
LUO-LIGHT
  2
LUO-LIGHT_MOD-D163-SIDE
 10
932.948327832989
 20
1402.620136130945
 30
0.0
  0
INSERT
  5
CDE
  8
LUO-LIGHT
  2
LUO-LIGHT_ADAPTER90W
 10
1432.819897857505
 20
387.7458136591819
 30
0.0
  0
INSERT
  5
D07
  8
LUO-LIGHT
  2
LUO-LIGHT_ADAPTER90W-SECTI
 10
1431.819897857505
 20
300.9527118228029
 30
0.0
  0
LINE
  5
D20
  8
0
 62
     7
 10
757.4453380290508
 20
624.0249039418302
 30
0.0
 11
401.2892293946259
 21
1327.692394588918
 31
0.0
1001
ACAD_DSTYLE_DIMRADIAL_EXTE
1070
   387
1070
     1
1070
   388
1040
5.49778714378212
1070
   390
1040
6.28073031289636
1001
ACAD
1000
DSTYLE
1002
{
1070
    41
1040
28.0
1070
   289
1070
     2
1070
    42
1040
20.0
1070
   147
1040
11.0
1070
   140
1040
28.0
1002
}
1001
PE_URL
1000

  0
TEXT
  5
D21
  8
0
  6
CONTINUOUS
 62
     7
 10
581.2546933266916
 20
997.541921549459
 30
0.0
 40
28.0
  1
817
 50
296.8459158698077
1001
ACAD_DSTYLE_DIMRADIAL_EXTE
1070
   387
1070
     1
1070
   388
1040
5.49778714378212
1070
   390
1040
6.28073031289636
1001
ACAD
1000
DSTYLE
1002
{
1070
    41
1040
28.0
1070
   289
1070
     2
1070
    42
1040
20.0
1070
   147
1040
11.0
1070
   140
1040
28.0
1002
}
1001
PE_URL
1000

  0
SOLID
  5
D22
  8
0
 62
     7
 10
753.2816250666423
 20
621.9174713463603
 30
0.0
 11
761.6090509914594
 21
626.1323365373
 31
0.0
 12
770.0899336018699
 22
599.0426261673789
 32
0.0
 13
770.0899336018699
 23
599.0426261673789
 33
0.0
1001
ACAD_DSTYLE_DIMRADIAL_EXTE
1070
   387
1070
     1
1070
   388
1040
5.49778714378212
1070
   390
1040
6.28073031289636
1001
ACAD
1000
DSTYLE
1002
{
1070
    41
1040
28.0
1070
   289
1070
     2
1070
    42
1040
20.0
1070
   147
1040
11.0
1070
   140
1040
28.0
1002
}
1001
PE_URL
1000

  0
ARC
  5
D23
  8
0
 62
     7
 10
401.2892293946259
 20
1327.692394588918
 30
0.0
 40
816.6666666667139
 50
296.7582182395429
 51
313.5968029859353
1001
ACAD_DSTYLE_DIMRADIAL_EXTE
1070
   387
1070
     1
1070
   388
1040
5.49778714378212
1070
   390
1040
6.28073031289636
1001
ACAD
1000
DSTYLE
1002
{
1070
    41
1040
28.0
1070
   289
1070
     2
1070
    42
1040
20.0
1070
   147
1040
11.0
1070
   140
1040
28.0
1002
}
1001
PE_URL
1000

  0
SOLID
  5
DAA
  8
0
 62
     7
 10
182.3217747692421
 20
579.5137504556568
 30
0.0
 11
190.6492005379779
 21
583.7286159549707
 31
0.0
 12
199.1300841515515
 22
556.6389058991064
 32
0.0
 13
199.1300841515515
 23
556.6389058991064
 33
0.0
1001
ACAD_DSTYLE_DIMRADIAL_EXTE
1070
   387
1070
     1
1070
   388
1040
5.49778714378212
1070
   390
1040
6.27843845391007
1001
ACAD
1000
DSTYLE
1002
{
1070
    41
1040
28.0
1070
   289
1070
     2
1070
    42
1040
20.0
1070
   147
1040
11.0
1070
   140
1040
28.0
1002
}
1001
PE_URL
1000

  0
INSERT
  5
E07
  8
LUO-LIGHT
  2
LUO-LIGHT_MOD-D163
 10
401.2892293949915
 20
1327.694855611388
 30
0.0
  0
INSERT
  5
E4A
  8
LUO-LIGHT
  2
LUO-LIGHT_MOD-D85
 10
7.95773267678237
 20
934.3458294064288
 30
0.0
  0
POLYLINE
  5
115B
  8
DIMENSIONS
 66
     1
 10
0.0
 20
0.0
 30
0.0
 70
     1
  0
VERTEX
  5
1185
  8
DIMENSIONS
 10
7.95589606166857
 20
76.653898848415
 30
0.0
  0
VERTEX
  5
1186
  8
DIMENSIONS
 10
552.1377115311928
 20
76.653898848415
 30
0.0
  0
VERTEX
  5
1187
  8
DIMENSIONS
 10
552.1377115311928
 20
9.8977822593057
 30
0.0
  0
VERTEX
  5
1188
  8
DIMENSIONS
 10
7.95589606166857
 20
9.8977822593057
 30
0.0
  0
SEQEND
  5
13A8
  8
DIMENSIONS
  0
POLYLINE
  5
1160
  8
DIMENSIONS
 66
     1
 10
0.0
 20
0.0
 30
0.0
 70
     1
  0
VERTEX
  5
1189
  8
DIMENSIONS
 10
7.95589606166857
 20
153.6469686966358
 30
0.0
  0
VERTEX
  5
118A
  8
DIMENSIONS
 10
552.1377115311928
 20
153.6469686966358
 30
0.0
  0
VERTEX
  5
118B
  8
DIMENSIONS
 10
552.1377115311928
 20
76.653898848415
 30
0.0
  0
VERTEX
  5
118C
  8
DIMENSIONS
 10
7.95589606166857
 20
76.653898848415
 30
0.0
  0
SEQEND
  5
13A9
  8
DIMENSIONS
  0
INSERT
  5
1161
  8
DIMENSIONS
  2
*X34
 10
0.0
 20
0.0
 30
0.0
  0
TEXT
  5
1163
  8
DIMENSIONS
  6
CONTINUOUS
 10
370.0953760428251
 20
125.2089259319738
 30
-0.00000000000001
 40
12.6519
  1
24.05.2021
  0
INSERT
  5
1164
  8
DIMENSIONS
  2
*X35
 10
0.0
 20
0.0
 30
0.0
  0
LINE
  5
1165
  8
DIMENSIONS
 10
353.3947577779248
 20
116.1311550136526
 30
0.0
 11
466.7001581284524
 21
116.1311550136526
 31
0.0
  0
INSERT
  5
1166
  8
DIMENSIONS
  2
*X36
 10
0.0
 20
0.0
 30
0.0
  0
LINE
  5
1167
  8
DIMENSIONS
 10
353.3947577779248
 20
76.653898848415
 30
0.0
 11
353.3947577779248
 21
153.6469686966358
 31
0.0
  0
TEXT
  5
1168
  8
DIMENSIONS
  6
CONTINUOUS
 10
360.9024178897912
 20
93.58043500534107
 30
0.0
 40
12.65176037314196
  1
(units in mm)
  0
LINE
  5
1169
  8
DIMENSIONS
 10
466.7001581284524
 20
76.653898848415
 30
0.0
 11
466.7001581284524
 21
153.6469686966358
 31
0.0
  0
POLYLINE
  5
116A
  8
DIMENSIONS
 66
     1
 10
0.0
 20
0.0
 30
0.0
  0
VERTEX
  5
1197
  8
DIMENSIONS
 10
441.5127661405471
 20
64.05898949337836
 30
0.0
  0
VERTEX
  5
1198
  8
DIMENSIONS
 10
441.5127661405471
 20
96.0204319756341
 30
0.0
  0
SEQEND
  5
13AA
  8
DIMENSIONS
  0
POLYLINE
  5
116B
  8
DIMENSIONS
 66
     1
 10
0.0
 20
0.0
 30
0.0
  0
VERTEX
  5
1199
  8
DIMENSIONS
 10
426.5127661405471
 20
79.05898949337836
 30
0.0
  0
VERTEX
  5
119A
  8
DIMENSIONS
 10
456.5127661405471
 20
79.05898949337836
 30
0.0
  0
SEQEND
  5
13AB
  8
DIMENSIONS
  0
INSERT
  5
116C
  8
DIMENSIONS
  2
*X37
 10
0.0
 20
0.0
 30
0.0
  0
ENDSEC
  0
EOF
